#TITLE:[REMIX] A Person;
#SUBTITLE:;
#ARTIST:Wolf;
#TITLETRANSLIT:;
#SUBTITLETRANSLIT:;
#ARTISTTRANSLIT:;
#GENRE:;
#CREDIT:locuuraa;
#LYRICSPATH:;
#MUSIC:[REMIX] A Person.ogg;
#OFFSET:0.660;
#SAMPLESTART:11.820;
#SAMPLELENGTH:12.000;
#SELECTABLE:YES;
#BPMS:0.000=166.860,260.000=111.230;
#STOPS:;
#KEYSOUNDS:;
#BANNER:[REMIX] A Person.png;
#BACKGROUND:[REMIX] A Person.png;
#CDTITLE:../CDTitles/4DSS.png;
#BGCHANGES:-14.700=[REMIX] A Person.avi=1.000=0=0=1,
229.000=[REMIX] A Person.png=1.000=0=0=1,
99999=-nosongbg-=1.000=0=0=0
;
#NOTES:
     ds3ddx-single:
     Remix:
     Challenge:
     6:
     :
00000000
00000000
00000000
00000000
,
00000000
00000000
00000000
00000000
,
10100000
00000000
00000000
00000010
00000000
00000000
01000000
00000000
,
00000000
01000000
00000000
00000000
00000010
00000000
00000000
00010000
,
00000000
00000000
00000001
00000000
00000000
11000011
00000000
00000000
,
01000000
00000000
00000000
00010000
00000000
00000000
00000010
00000000
,
00000000
01000000
00000000
00000000
00000001
00000000
00000000
10000000
,
00000000
00000000
00000000
00010000
00000000
00000000
00000000
00000000
,
01000000
00000000
00000000
00000100
00000000
00000000
01000000
00000000
,
00000000
00000100
00000000
00000000
01000000
00000000
00000000
00000010
,
00000000
00000000
00100000
00000100
00000000
10100000
00000000
00000000
,
00000010
00000010
00000000
01000000
00000000
00000000
00100000
00000100
,
00000000
11000000
00000000
00000000
00000010
00000000
00000000
00000011
,
00000000
00000000
01000000
00000000
00000000
11000000
00000000
00000000
,
00010100
00000000
00000000
00000000
,
00000000
00000000
00110000
00000000
,
00000000
00000000
01000000
00000010
00000000
01000000
00000010
00000000
,
11000000
00000000
00000000
00000100
00000000
00000000
00000010
00000000
,
00000000
01000000
00000000
00000000
00110000
00000000
00000000
00000010
,
00000000
00000000
01000000
01000000
00000000
00000010
00000000
00000000
,
01000000
00000000
00000000
00010100
00000000
00000000
01000000
00000000
,
00000000
00000101
00000000
00000000
00100000
00000000
00000000
01010000
,
00000000
00000000
00000010
00000000
01000000
00000100
00100000
00000000
,
00000011
00000000
00000000
01000000
00000000
00000100
01000000
00000000
,
00000000
00000011
00000000
00000000
11000000
00000000
00000000
00010100
,
00000000
00000000
00100000
00100000
00000000
00000010
00000000
00000000
,
01000000
00000000
00000000
00000100
00000000
00000000
01000000
00000000
,
00000000
10000010
00000000
00000000
00100000
00100000
00000000
00000101
,
00000000
00000000
01000000
00000100
00000000
11000000
00000000
00000000
,
01000010
01000010
00000000
01010100
00000000
00000000
00100000
00010000
,
00000000
00000101
00000000
00000000
00100010
00100010
00000000
01000000
,
00000000
00000000
00000010
01000000
00000000
00010100
00000000
00000000
,
00100000
00100000
00000000
00000011
00000000
00000000
01000000
01000000
,
00000000
10000010
00000000
00000000
00000101
00000000
00000000
01000000
,
00000000
00000000
00000100
00000000
00000000
00010010
00000000
00000000
,
00100000
00000000
00000000
00010000
00000000
00000000
10000001
00000000
,
00000000
00000000
00000000
00000000
00010100
00000000
00000000
00100000
,
00000000
00000000
00000010
00000000
00000000
11000000
00000000
00000000
,
00000100
00100000
00000000
00000011
00000000
00000000
01000000
01000000
,
00000000
00000101
00000000
00000000
00100000
00000000
00000000
01100000
,
00000000
00000000
00000100
00000010
00000100
00000000
01000000
00000000
,
00000010
00000000
00000000
01000000
00000000
00000000
00000010
00000010
,
00000000
11000000
00000000
00000000
00000100
00000000
00000000
00000010
,
00000000
00000000
00100000
00100000
00000000
00000011
00000000
00000000
,
01000000
01000000
00000000
00000010
01000000
00000000
00010100
00000000
,
00000000
10000000
00000000
00000000
00000001
00000000
00000000
00010000
,
10000000
00000000
00000100
00000100
00000000
01000000
00000000
00000000
,
00000011
00000000
00000000
01000000
00000000
00000000
00100100
00000010
,
00000000
01000000
00000000
00000000
00000010
00000000
00000000
10100000
,
00000000
00000000
00000010
00000010
00000000
01000000
00000100
00000000
,
10100000
00000000
00000000
00000010
01000000
00000000
00000100
00000000
,
00000000
01000000
00000000
00000010
10100000
00000000
00000000
00000010
,
00000000
00000000
01000000
01000000
00000000
00000010
01000000
00000000
,
00000101
00000000
00000000
01000000
00000000
00000010
00100000
00000000
,
00000000
00000010
00000010
00000000
01000000
00000010
00000000
11000000
,
00000000
00000000
01000000
00000010
00000000
00100000
00000100
00000000
,
01000000
00000000
00000000
00000011
00000000
00000000
10100000
00000000
,
00000000
00000100
00000100
00000000
00100000
00000010
00000000
11000000
,
00000000
00000000
00000010
01000000
00000010
00000000
01000000
00000000
,
00000100
00000000
00000000
00100000
00000000
00000010
10100000
00000000
,
00000000
00000100
00000100
00000000
00100000
00000010
00000000
01000000
,
00000000
00000000
00100000
00000000
00000010
01000000
01000000
00000000
,
00000011
00000000
00000000
00010000
00000000
00000000
11000011
00000000
,
00000000
00100000
00000000
00000000
10000001
00000000
00000000
00000000
,
00000000
00000000
00000000
00000000
,
00100000
00000100
01000000
01000000
,
00000011
00100000
00000100
01000000
,
00000010
00110000
00000010
11000000
,
00010000
00000001
01000000
00000100
,
00100000
00000101
11000000
00000010
,
10000000
00000001
00010000
01000000
,
00000010
00000010
01000000
00010100
,
01000000
00000100
01000000
00000101
,
11000000
00100000
00000010
00000010
,
00100000
00000100
01000000
11000011
,
00000100
00100100
00100000
01100000
,
00000100
00000000
00000110
00000000
01000000
01000000
00000010
00000000
,
00010000
10000001
00000100
01000100
,
00010000
10000000
00000100
00010010
,
01000000
00010000
00000010
10100000
,
00000100
00000000
00110100
00000000
01000000
00000100
01000000
00000000
,
00000011
00000000
11000000
00000000
00000101
00000000
00100000
10000000
,
00000101
00010000
00100000
00000000
00000011
00000000
01000000
00000000
,
01000000
00000100
00100000
00000001
,
01000000
00010000
00000010
01000010
,
00010000
00100100
01000000
01000000
,
00000010
00000010
00100000
00000101
,
10100000
00000000
00000101
00000000
01000000
01000000
00000010
00000000
,
01000000
00010000
00000010
00010000
,
00100000
00000001
00000100
10000000
,
00000010
01000000
00000010
01000000
00010100
00000000
00010000
00000000
,
00000100
00010010
00100000
01010000
,
00000010
01000000
00010000
11000011
,
01000000
01000000
00000100
00000000
00000010
00000010
00100000
00000000
,
00000100
00100000
00000010
00100000
00000100
01000000
00000011
00000000
,
01000000
00000010
01000000
00000100
,
11000000
01000000
00000011
00000000
,
10100101
00000010
00000010
11000000
,
00000100
00100000
00010100
01000000
,
00000001
01000000
00000100
10000000
,
00000001
00000000
00010100
00000000
01000000
01000000
00000010
00000000
,
00000100
00100000
00000101
00000000
00100000
00000000
01110000
00000000
,
00000100
00010110
01000000
01000010
,
00000100
00100000
00000100
00100000
00000011
00000000
11000000
00000000
,
10000001
00000000
00000000
00000000
,
01000000
00000100
00100000
00000010
,
10000000
10000000
00000001
00010100
,
01000000
01000000
00000010
00000000
00000100
00000100
01000000
00000000
,
00100000
00000100
00100000
00000100
01000000
00000010
00100000
00000000
,
00000100
10000000
00100000
00000001
,
00000010
00000000
10000000
00000000
00010000
10000000
00000101
00000000
,
00100000
00100000
00000010
00000000
01000000
00000000
00000101
00000000
,
00000010
01000000
00000100
00000000
00100000
00000000
00100000
00000000
,
00000100
00000000
11000000
00000000
00000001
00010000
00000001
00000000
,
00100000
00000000
01000000
00000000
00000001
10000000
00010100
00000000
,
00100000
01000000
00000100
00000010
,
00100000
01010000
00000100
00010010
,
01000000
10000010
00000010
01000001
,
00000100
00010000
00010000
01000000
,
00010000
10000000
00010000
00000000
00000001
10000000
00010000
00000000
,
00000001
00010000
00000001
00000000
00100000
00000000
01001000
00000000
,
00000010
11000000
00000100
00000100
,
00100000
01000000
00000100
00001010
,
00100000
00000100
00010000
10000000
,
00000001
00001000
00000100
00011010
,
00100000
00000000
00000010
00000000
01000000
01000000
00000100
00000000
,
00100000
00000100
00001010
00000000
01000000
00000000
00000010
00000000
,
00000001
00010000
11000000
00000000
00000100
00000100
01000000
00000000
,
00000010
00000000
01000000
01000000
,
00000101
01000000
01000000
00000100
,
10000000
00000001
00010100
00100000
,
00000010
11000101
10100011
00100000
,
00000010
00000000
00100000
00000010
10100000
00000000
00000100
00000010
,
00000100
01000000
00000001
00000010
,
00010000
00000000
10000000
00010000
10000000
00000000
00000001
10000000
,
00000011
00100000
00000100
00000010
,
01000000
00100000
00000100
10100000
,
00000101
00000000
00100000
00100000
00000101
00000000
01000000
00000010
,
00110000
00000010
01000000
00010000
,
00000011
00000000
00100000
01000000
00110000
00000000
00000100
00000010
,
00010100
00000000
01000000
00000000
01000000
00000000
00000100
00100000
,
00000011
01000000
00000010
01000000
,
00000010
00000000
10100000
00000000
00000101
00000000
01000000
00000010
,
00100000
00000000
00000010
01000000
00000100
00000000
01000000
00000000
,
00000010
00110000
00000101
01000000
,
00000010
00000000
00000000
01000010
00000000
00000000
00000000
00000000
;
