#TITLE:[REMIX] 爱无赦 + Tears + Escape;
#SUBTITLE:~ Bravo Lover + Tears + Runaway;
#ARTIST:蔡依林 & S#ARP & Groove Coverage;
#TITLETRANSLIT:Ài wú shè + Tears + Escape;
#SUBTITLETRANSLIT:;
#ARTISTTRANSLIT:Jolin Tsai & S#ARP & Groove Coverage;
#GENRE:;
#CREDIT:locuuraa;
#LYRICSPATH:;
#MUSIC:[REMIX] 爱无赦 + Tears + Escape.ogg;
#OFFSET:-0.480;
#SAMPLESTART:11.940;
#SAMPLELENGTH:12.000;
#SELECTABLE:YES;
#BPMS:0.000=132.000,176.000=140.000,445.000=130.000,447.000=140.000;
#STOPS:;
#KEYSOUNDS:;
#BANNER:[REMIX] 爱无赦 + Tears + Escape.png;
#BACKGROUND:[REMIX] 爱无赦 + Tears + Escape.png;
#CDTITLE:../CDTitles/4DSS.png;
#BGCHANGES:-14.700=[REMIX] 爱无赦 + Tears + Escape.avi=1.000=0=0=1,
229.000=[REMIX] 爱无赦 + Tears + Escape.png=1.000=0=0=1,
99999=-nosongbg-=1.000=0=0=0
;
#NOTES:
     ds3ddx-single:
     Remix:
     Challange:
     6:
     :
00000000
00100000
00000000
00000100
,
00000000
00100000
00000000
00000010
,
00000000
01000000
00000000
00000100
,
00010000
10000000
00000000
00000000
00010000
00000001
00000000
00000000
,
00100000
00000000
00010000
00000000
,
00000100
00000000
00000001
00000000
,
01000000
00000000
10000000
00000000
,
00000010
00000000
00000001
00000000
,
00100000
00000000
00000001
00000000
,
00000100
00000000
10000000
00000000
,
01000000
00000000
00010000
00000000
,
00000010
00000000
00000001
00000000
,
00000000
00000000
00000000
00000000
,
00100100
00000011
11000000
00100000
,
00000100
01010000
00000100
10100000
,
00100000
10000100
00000011
00000011
,
00100000
01000000
00000010
00010100
,
00100000
11000000
00000100
00000011
,
00100000
00010100
00000100
11000000
,
00000100
00000101
00100000
11000000
,
00000010
00010100
10100000
01100000
,
01000000
01000000
01000000
01000000
,
00000100
00000100
00000100
00000100
,
00100000
00000100
00100000
00100000
,
00000010
01000000
00000010
00000010
,
00100000
00100000
00100000
00100000
,
00000100
00000100
00000100
00000100
,
01000000
00000010
01000000
01000000
,
00000100
00100000
00000100
00000100
,
01000000
11000000
00000100
00000011
,
00100000
00110000
00000100
00000101
,
00100000
01000000
00000010
00000100
,
00100000
10000000
00000001
00010000
,
00100000
00110000
00000100
10000100
,
01000000
00110000
00000100
00010010
,
01000000
00000100
00000010
01000000
,
00100000
00000100
10000000
00000000
,
00100100
00100100
00100000
01100000
,
01000010
01000010
00000010
00000110
,
00100000
01100000
00000100
00000110
,
00100000
00000011
01000000
10100000
,
00000101
00000101
00100000
00100000
,
11000000
11000000
00000010
00000010
,
00100000
00010100
00000100
00110000
,
10000001
00000000
00000000
00000000
00000000
00000000
00100000
00100000
,
00011000
00000000
00000000
00000000
00000000
00000000
00000100
00000100
,
10100000
10000100
00000101
00100001
,
00100000
00000100
00000010
01000000
,
00000011
00000011
11000000
11000000
,
00100000
00000100
00000010
01000000
,
00100100
00100100
01000010
01000010
,
01000000
00100000
00000100
00000010
,
00000110
00000110
01100000
01100000
,
00100000
00000000
00000100
00000000
00000010
00000000
01000000
00000001
,
00100000
00010000
00010000
10000001
,
00000100
10000000
10000000
00011000
,
00000001
00000001
10000000
10000000
,
00100000
00000100
00000010
01000000
,
00000010
00000001
00000001
00011000
,
01000000
10000000
10000000
00011000
,
00100000
00100000
00000100
00000100
,
01000000
00000010
00000100
00100000
,
10000001
00000000
00000000
00000000
,
00100000
00000100
00110000
00000000
00000010
01000000
00010010
00000000
,
00100000
01000000
10100000
00000000
00000100
00000010
00000101
00000000
,
00100000
00100000
10000100
00000000
00000100
00000100
00100001
00000000
,
00000010
00000010
01000001
00000000
01000000
01000000
10000010
00000000
,
00100000
00000010
11000000
00000000
00000100
01000000
00000011
00000000
,
00100000
01000000
10000010
00000000
00000100
00000010
11000000
00000000
,
00000010
00000100
10100000
00000000
01000000
00100000
00000101
00000000
,
00100000
00100000
11000000
00000000
00000100
00000100
00000011
00000000
,
00100000
00110000
00000100
00010100
,
00100000
10100000
00000100
00000100
,
00100000
00000100
00100000
00000010
,
01000000
00100000
00000100
00000010
,
00100000
00000100
01000000
01000000
,
00100000
00000010
00000100
00100000
,
01000000
00100000
00000100
00000010
,
00100000
10000000
00000100
00000001
00010000
00010000
00010000
00000000
,
00100000
01100000
00000100
00000110
,
00100000
00000010
01000000
00110000
,
00000100
00000011
00100000
01010000
,
00000010
00001000
00100000
11000000
,
00000100
00000101
00000100
10100000
,
00100000
00100100
00000010
01000010
,
00100000
00000100
00000010
01000000
,
00000010
00000001
01000000
10000000
00010000
00010000
00010000
00000000
,
10000001
00100000
00000100
01000000
,
00100000
00000010
00000100
00100000
,
01000000
00100000
00000010
00010000
,
00100000
01000000
00000100
00000010
,
01000000
00010000
00100000
00000100
,
00000010
01000000
00000100
10000000
,
00100000
00000001
00100000
00100000
,
00000101
00000000
00000101
00000000
00000000
10010000
00000000
00000000
00000000
00000000
00000000
00000000
,
00100100
00010000
00010000
10000000
,
01000010
00001000
00001000
00000001
,
00100000
11000000
00000100
00010010
,
10000000
10000000
00000001
00010000
,
00000100
00000101
00100000
10100000
,
00000100
00000000
00000100
00000000
00010000
10000000
00000000
00000000
,
00000100
00000100
00000010
00000010
,
01000000
00100000
00010100
00000000
,
01100000
00010000
00010000
10000001
,
00000110
00001000
00001000
10000001
,
00100000
00000101
00100000
10100000
,
00000010
00000100
01000000
00110000
,
01000000
01000001
00000010
10000010
,
00100000
00000100
11000000
11000000
,
00000000
00000100
00000010
00100000
,
10000100
00100001
10000010
01000001
,
00011000
00000000
00000000
00000000
,
00100100
00000000
00100100
00000000
01000010
00000000
01000010
10000000
,
00100010
00000000
01000100
00000000
00000001
00000000
10000000
10000000
,
01100000
00000000
01100000
00000000
00000110
00000000
00000110
00000001
,
11000000
00000000
11000000
00000000
00000100
00000001
00100000
10000000
,
00000100
00000001
00100000
00010000
,
00000001
10000000
00001000
00000001
,
00010000
00001000
10000000
00000001
,
00010000
00010000
00010000
10000001
,
00100100
00100100
01000010
01000010
,
01100000
01100000
00000110
00000110
,
00100100
01000010
01000010
00100100
,
10000000
00000000
00000001
00000000
01000000
10000000
00000010
00000001
,
01000000
11000000
00000010
00000011
,
00100000
00110000
00000100
00000101
,
00100000
01100000
00000100
00000110
,
00010000
00000000
00010000
00000000
01000000
10000000
00000010
00000001
,
01011000
00000000
00000000
00000000
,
00100000
01100000
00000100
00000110
,
00100000
00000100
11000000
11000000
,
00000011
00000011
11000000
11000000
,
00100000
00000100
00100000
00100000
,
00000100
00010100
00100000
00110000
,
01000000
00000010
10000000
00000001
,
00100000
00000100
01000000
00100000
,
00000010
00000100
11000000
11000000
,
00000011
00000000
00000000
00000000
,
10000000
00000000
00000000
00000000
,
00000001
00000000
00000000
00000000
,
10000000
00000000
00000000
00000000
,
00000000
00000000
00000000
00000000
,
00000000
00000000
00100000
00000000
,
00010000
00000000
00000100
00000000
,
10000000
00000000
00000010
00000000
,
00010000
00000000
01000000
00000000
,
00000001
00000000
00100000
00000000
,
00010000
00000000
00000100
00000000
,
10000000
00000000
00100000
00000000
,
00000001
00000000
00000100
00000000
,
00010000
00000000
00100100
00100100
,
01000010
01000010
01100000
01100000
,
01000010
01000010
00000110
00000110
,
00100100
00100100
01100000
01000010
,
00100100
00000000
00100100
00000000
01000000
00000010
01000000
00000011
,
00100000
00000100
00100000
10000100
00100000
01000000
00100000
11000000
,
00000010
00000100
00000010
00000101
00100000
00000100
00000010
01000000
,
00100000
00000100
00000010
01000000
00100000
00000000
00100000
00000000
,
00000100
00000100
10000001
00000000
;
