#TITLE:[REMIX] 爱×无限大 + GetReady + 游戏;
#SUBTITLE:~ Love × Infinity + GetReady + Games;
#ARTIST:Shorty Yuan & YG Family & Chae Yeon;
#TITLETRANSLIT:Ài × wúxiàn dà + GetReady + yóux;
#SUBTITLETRANSLIT:;
#ARTISTTRANSLIT:;
#GENRE:;
#CREDIT:locuuraa;
#LYRICSPATH:;
#MUSIC:[REMIX] 爱×无限大 + GetReady + 游戏.ogg;
#OFFSET:0.620;
#SAMPLESTART:11.980;
#SAMPLELENGTH:12.000;
#SELECTABLE:YES;
#BPMS:0.000=93.200,114.000=10.000,115.000=9.400,115.250=46.600,115.500=46.600,116.500=46.200,116.750=93.200,247.000=100.000,252.500=100.000;
#STOPS:;
#KEYSOUNDS:;
#BANNER:[REMIX] 爱×无限大 + GetReady + 游戏.png;
#BACKGROUND:[REMIX] 爱×无限大 + GetReady + 游戏.png;
#CDTITLE:../CDTitles/4DSS.png;
#BGCHANGES:-14.700=[REMIX] 爱×无限大 + GetReady + 游戏.avi=1.000=0=0=1,
229.000=[REMIX] 爱×无限大 + GetReady + 游戏.png=1.000=0=0=1,
99999=-nosongbg-=1.000=0=0=0
;
#NOTES:
     ds3ddx-single:
     Remix:
     Challenge:
     5:
     :
00000000
00000000
00000000
00000000
,
00000000
00000000
00000000
00000000
,
00000000
00000000
00000000
00000000
,
00000000
00000000
00000000
00000000
,
00100000
00100000
00000100
00010000
00000000
00000000
00100000
00000000
00000000
01000000
00000000
00000000
,
00000100
00000100
00000010
00000000
00100000
00000000
01000000
00000000
,
00000100
00000100
00100000
10000000
00000000
00000000
00000100
00000000
00000000
00000010
00000000
00000000
,
00100000
01000000
00000100
00000010
,
00100000
00000100
01000010
00000000
00000100
00000000
00000010
00000000
,
00100000
00100000
01000000
00000000
00000100
00000000
00000010
00000000
,
00100000
00100000
00000100
00000001
00000000
00000000
00100000
00000000
00000000
01000000
00000000
00000000
,
00000100
00000010
00100000
01000000
,
00000100
00100000
01000010
00000000
00100100
00000000
00010000
00000000
,
00100100
01000000
01000010
00000000
00100100
00000000
00010000
00000000
,
00000100
00000010
01000010
00000000
01100000
00000000
10000000
00000000
,
00000110
00000001
01100000
00000110
,
00100000
00000010
01000010
00000000
00100100
00000000
00010000
00000000
,
00100100
01000000
01000010
00000000
00100100
00000000
00010000
00000000
,
00000100
00000010
01000010
00000000
01100000
00000000
10000000
00000000
,
00000110
00000001
01100000
00000110
,
00100000
00000010
01000010
00000000
10000001
00000000
00000100
00000100
,
00100000
00100000
00010000
00000000
00100000
00000100
00000100
00100000
,
01000000
00000010
00010000
00000000
10100000
00000000
00000101
00000000
,
00000010
00000010
11000000
00000000
00100000
01000000
00000010
00000100
,
00100000
00100000
10000001
00000000
00000011
00000000
11000000
00000000
,
00100000
00000100
00100000
00000000
01000000
01000000
00000010
00000010
,
01000000
00000000
00000000
00000100
00000000
00000000
00100100
00000000
00000000
00000000
00000000
00000000
10000000
00000000
00010000
00000000
10000000
00000000
01100000
00000000
00000000
00000000
00000000
00000000
,
00000001
00000000
00010000
00000001
00000000
00000000
00000110
00000000
00000000
00000000
00000000
00000000
00100000
00000000
00000000
00100000
00000000
00000000
00000100
00000000
00000000
00000100
00000000
00000000
,
01000000
00000010
10000001
00000000
00000000
00000000
00000000
00000000
,
00000000
00010000
00100000
00000010
,
00000100
00000100
01000000
00000000
00000100
00000000
01000000
00000000
,
00100000
00100000
00000010
00000000
01000000
00000000
00110000
00000000
,
00000100
00000100
00000010
00000000
00000010
00000000
00010100
00000000
,
10100000
00000000
00100000
00000100
,
00100000
00100000
00000011
00000000
00000100
00000000
00100000
00000000
,
00000010
00000010
11000000
00000000
00000010
00000000
00110000
00000000
,
00000100
01000000
00110000
00000000
10000001
00000000
00000000
00000000
,
00000000
01000010
01000010
00000000
00100000
00010000
00000100
10000000
,
01000000
01000000
01100000
00000000
00000100
00000000
00000010
00000000
,
01000000
00000010
00100100
00000000
00000100
00010000
00100000
00000001
,
00000100
00000100
00000110
00000000
00100000
00000000
00000010
00000000
,
01000000
00000010
01000010
00000000
00100000
00010000
00000100
00010000
,
01000000
00010000
00000010
00010000
00100000
00000000
00000100
00000000
,
00000010
01000000
01000010
00000000
00100000
00000000
01100000
00000000
,
00000100
00000100
10100000
00000000
01000000
00000000
00000100
00000000
,
01000010
00000100
00000110
00000000
10000000
10000000
10000000
00000000
,
00000001
00000001
00000001
00000000
00000100
00000010
01000000
00100000
,
00000000
00000000
00010000
00000000
00100000
01000000
00100000
00000000
,
00000100
00000010
00000100
00000000
00100000
00000100
00100000
00000100
,
10000001
00011000
00100010
00000000
,
00000000
00000000
00110100
00000000
,
00000000
00010000
01000000
01100000
,
00100000
00000010
00000110
00000000
00010000
00000000
10000000
00000000
,
00000001
00010000
00000000
00000000
00100000
00010000
00000100
10000000
,
01000000
01000000
01100000
00000000
00000100
00000000
00000010
00000000
,
01000000
00000010
00100100
00000000
00000100
00010000
00100000
00000001
,
00000100
00000100
00000110
00000000
00100000
00000000
00000010
00000000
,
01000000
00000010
01000010
00000000
00100000
00010000
00000100
00010000
,
01000000
00010000
00000010
00010000
00100000
00000000
00000100
00000000
,
00000010
01000000
01000010
00000000
00100000
00000000
01100000
00000000
,
00000100
00000100
10100000
00000000
01000000
00000000
00000100
00000000
,
01000010
00000100
00000110
00000000
10000000
00000000
00000101
00000000
,
00000000
00000000
00000000
00000000
,
00000000
00000000
00100000
00000100
00100000
00000000
00000010
00000100
,
00000010
00000000
01000000
00000010
01000000
00000000
00100000
01000000
,
00100000
00000000
00000100
00000100
00100000
00000000
00100000
00100000
,
00000100
00000000
00100100
00000000
01000010
00000000
00000010
00000100
,
00100000
01000000
10000001
00000000
00100000
00000000
00000100
00000000
,
00100000
00000000
00000100
00000010
00000100
00000000
00100000
01000000
,
00100000
00000010
00100000
01000000
,
00000100
00000000
00100000
00000010
00100000
00000000
00000100
01000000
,
00000100
00100000
10100000
00000100
,
00000101
00100000
11000000
00000100
,
00000011
00110000
00010100
11000000
,
00000011
00000000
01000000
00000010
01000000
00000000
00000010
00000100
,
00100000
01000000
10000001
00000000
00100000
00000000
00000100
00000000
,
00100000
00000000
00000100
00000010
00000100
00000000
00100000
01000000
,
00100000
01000000
00000100
00000010
,
00100000
00000000
00000100
01000000
00000100
00000000
00100000
00000010
,
00100000
00000100
00000101
00100000
,
10100000
00000100
00000011
00100000
,
11000000
00010100
00110000
00000011
,
11000000
00000000
00000010
01000000
00000010
00000000
00110100
00000000
,
00000000
00100000
00100000
00100000
,
00010000
00000100
00000100
00000100
,
00010000
00100000
01100000
00000100
,
00000110
00000000
00100000
00000100
00100000
00000100
10000001
00000000
,
00000000
01000000
01000000
01000000
,
00001000
00000010
00000010
00000010
,
00001000
01000000
01100000
00000010
,
00000110
00000000
00100000
00100000
00100000
00100000
00000101
00000000
,
00000000
00100000
00010100
00000010
,
00110000
11000000
00000011
00100100
,
10000001
01000000
00010100
00100000
,
00010010
00000000
00100000
01000000
00000100
00000010
11000000
00000000
,
00000000
00000100
00110000
01000000
,
00000101
00100000
10100000
00000100
,
00000011
00100000
00100100
00000010
,
01000010
00000000
00100000
00000010
01000000
00000100
10000001
00000000
,
00011000
00100000
00110000
00000100
,
00000011
00000100
00010100
00100000
,
11000000
00000010
00110000
00000100
,
11000000
00000000
00010110
00000000
00000000
00000000
00100000
00000100
,
01000000
00000010
00010000
00000000
00000000
00000000
00000000
00000000
;
