#TITLE:[REMIX] 我一直在路上 + Stronger + Mắt và môi;
#SUBTITLE:~ I've been on the road + Stronger + Eyes and lips;
#ARTIST:DJ冰河时代;
#TITLETRANSLIT:Wǒ yīzhí zài lùshàng + Stronger + Mắt và môi;
#SUBTITLETRANSLIT:;
#ARTISTTRANSLIT:DJ Ice Age;
#GENRE:;
#CREDIT:locuuraa;
#LYRICSPATH:;
#MUSIC:[REMIX] 我一直在路上 + Stronger + Mắt và môi.ogg;
#OFFSET:0.660;
#SAMPLESTART:11.940;
#SAMPLELENGTH:12.000;
#SELECTABLE:YES;
#BPMS:0.000=63.910,141.000=69.000,142.000=64.260;
#STOPS:;
#KEYSOUNDS:;
#BANNER:[REMIX] 我一直在路上 + Stronger + Mắt và môi.png;
#BACKGROUND:[REMIX] 我一直在路上 + Stronger + Mắt và môi.png;
#CDTITLE:../CDTitles/4DSS.png;
#BGCHANGES:-14.700=[REMIX] 我一直在路上 + Stronger + Mắt và môi.avi=1.000=0=0=1,
229.000=[REMIX] 我一直在路上 + Stronger + Mắt và môi.png=1.000=0=0=1,
99999=-nosongbg-=1.000=0=0=0
;
#NOTES:
     ds3ddx-single:
     Remix:
     Challenge:
     5:
     :
00000000
00000000
00000000
00100000
,
00100000
00000100
00000100
00100000
,
00000010
00000000
00000100
00100000
00000010
01000000
00000100
00010000
,
00100000
00010000
01000000
10000001
00000100
00010000
00100000
10000000
,
00000100
00000001
01000000
10000000
00000010
00000001
00100000
00010000
,
00000100
00010000
01000000
10000001
00000010
00010000
00100000
00000000
,
00000100
10000001
00000000
00010000
,
00000000
00000000
00100000
00100000
00000100
00000100
00010000
10000000
,
00001000
10000001
00100000
00000000
10000001
00000000
00000100
00000000
,
00010000
01000000
10000001
00000010
,
00010000
00100000
10000000
00000100
,
00000001
00000000
10000001
00000000
00011000
00000000
00100000
00000100
,
00000010
01000000
10000001
00000000
00000000
00100000
00100000
00000100
,
00000100
00100000
10000000
00000100
00000001
00100000
01000000
00000100
,
00000010
00100000
00000100
00100000
10000000
00000100
00000001
00100000
,
01000000
00000010
00000100
00100000
01100000
00000100
00000110
10000001
,
00011000
10000001
00011000
00000000
00000000
00100000
10000001
00000100
,
00011000
00100000
00000001
00000100
10000000
00100000
00100000
00000100
,
00000100
00100000
10100000
00000100
00000101
00100000
01010000
00000100
,
00010010
01000000
00000010
00000100
00100000
00000100
10000001
00000000
,
00000000
10000001
00000000
00000000
00000000
00100000
00000100
10000001
,
10000001
00000010
01000000
00011000
10000001
00000100
00100000
10000001
,
10000001
01000000
00000100
00011000
10000001
01000000
00000100
00010000
,
10000000
00000010
00100000
00010000
00000001
00100000
00000010
00010000
,
00000001
10000000
00000000
10000001
00000000
00100000
00000100
00100000
,
00100000
00000100
00100000
00000100
00000100
00100000
00000010
00000100
,
01000000
00100000
10000000
00000100
00000001
00100000
00100000
00000100
,
00000100
01000000
00000010
00000010
01000000
10000001
00000000
00000000
,
00000000
00000000
00000000
00000000
00000000
00010000
00000000
00000000
,
00000000
00000000
00000000
00000000
00000000
10000000
00000000
00000000
,
00000000
00000000
00000000
00000000
00000000
00000001
00000000
00000000
,
00000000
00000000
00000000
00000000
00000000
00010000
00000000
00000001
,
00000000
00010000
00000000
10000000
00000000
00010000
00000000
10000001
,
00000000
00010000
00000000
10000001
00000000
00010000
00000000
10000000
,
00000000
00010000
00000000
00000001
00000000
00011000
00000000
10000001
,
00000000
00011000
00000000
00000000
00000000
01000000
00010000
00000100
,
00010000
00100000
10000000
00000100
00000001
00100000
01000000
00000010
,
00000100
00010000
00010000
10000001
00000000
01000000
00010000
00000100
,
00010000
00100000
10000000
00000100
00000001
00100000
01000000
00000010
,
00000100
00010000
00010000
10000001
00000000
00010000
00000000
10000001
,
10000001
00010000
00000000
10000000
00000001
00000000
00100000
00000000
,
00000100
00000000
10100000
00000000
00000101
00010000
00000000
10000001
,
10000001
00010000
00000000
00000001
10000000
00000000
00000100
00000000
,
00100000
00000000
00000101
00000000
10100000
00010000
00000000
10000000
,
00000001
00000000
00000000
00000000
00000000
00010000
00000000
10000000
,
00000001
00000000
00000000
00000000
00000000
00011000
00000000
10000001
,
10000001
00000000
00010000
00000000
,
10000001
00000000
00000000
00000000
00000000
00100000
10000000
00000100
,
00010000
00100000
01000000
00000100
10000001
00000100
00000001
00100000
,
00010000
00000100
00000010
00100000
10000001
00100000
00010000
00000100
,
00010000
01000000
10000000
00000010
00000001
00100000
00100000
00000100
,
00000100
10000000
00000001
00010000
00010000
10000001
00000000
00010000
,
00010000
10000000
00000000
00000001
00000001
10000001
00000000
00010000
,
00010000
00000001
00000000
10000000
10000000
10000001
00000000
00011000
,
00011000
10000000
00000000
00010000
00010000
00011000
00000000
10000001
,
10000001
00010000
00000000
10000000
00000001
00100000
01000000
00000100
,
00000100
01000000
00000100
00100000
00100000
00000100
00000010
00100000
,
00100000
00000010
00100000
00000100
00000100
00100000
10100000
00000100
,
00000101
00100000
01000000
00000010
00000100
00100000
00100000
00000100
,
00000100
11000000
00000011
00010000
00010000
00100100
00000000
10000000
,
10000000
00100100
00000000
00100100
00000000
10000001
00100000
00010000
,
00000100
00010000
00100000
11000000
00000100
00000011
00100000
01000000
,
00000100
00000010
00100000
00000101
00000010
11000000
00010000
00010000
,
00000000
10000001
00000000
00000000
00000000
00100000
00100000
00000100
,
00010000
00000100
00000100
00100000
00010000
00100000
01000000
00000100
,
00100000
00000100
00000010
00100000
00000100
01000000
01000000
00000100
,
00000100
00100000
00100000
00000010
00000010
00000100
01000000
00100000
,
00000010
00100000
00000100
01000000
00000010
00100000
00100000
00000100
,
00010000
00000100
00000100
00100000
00010000
00100000
01000000
00000100
,
00100000
00000100
00000010
00100000
00000100
01000000
01000000
00000100
,
00000100
00100000
00100000
00000010
00000010
00000100
01000000
00100000
,
00000010
00100000
00000100
10000001
00000000
00010000
00000000
00000000
,
00000000
10000001
00000000
00010000
00000000
10000001
00000000
00000000
,
00000000
00011000
00000000
10000001
00000000
10000001
00000000
00000000
,
00000000
00011000
00000000
10000000
00000000
00011000
00000000
00000000
,
00000000
10000001
00000000
00000000
00000000
00000000
00000000
00000000
;
