#TITLE:[REMIX] 幽灵盛典 + V3 + Love is a Danger Zone 2;
#SUBTITLE:~ Ghost Party + V3 + Love is a Danger Zone 2;
#ARTIST:Spirit Trace & BanYa;
#TITLETRANSLIT:Yōulíng shèngdiǎn + V3 + Love is a Danger Zone 2;
#SUBTITLETRANSLIT:;
#ARTISTTRANSLIT:Will Pan & Babel J & DJ Goldfinger;
#GENRE:;
#CREDIT:locuuraa;
#LYRICSPATH:;
#MUSIC:[REMIX] 幽灵盛典 + V3 + Love is a Danger Zone 2.ogg;
#OFFSET:0.420;
#SAMPLESTART:11.720;
#SAMPLELENGTH:12.000;
#SELECTABLE:YES;
#BPMS:0.000=136.000,53.000=20.000,53.083=136.000,53.125=136.000,53.500=20.000,53.583=136.000,54.000=20.000,54.083=136.000,54.500=20.000,54.583=136.000,55.000=20.000,55.083=136.000,55.500=20.000,55.583=136.000,56.000=20.000,56.083=136.000,56.500=20.000,56.583=136.000,93.000=20.000,93.083=136.000,93.125=136.000,93.500=20.000,93.583=136.000,93.625=136.000,94.000=20.000,94.083=136.000,94.500=20.000,94.583=136.000,95.000=20.000,95.083=136.000,95.500=20.000,95.583=136.000,96.083=136.000,98.333=20.000,98.417=136.000,98.583=136.000,98.833=20.000,98.917=136.000,99.083=136.000,99.333=20.000,99.417=136.000,105.000=68.000,107.000=34.000,108.333=34.000,109.417=136.000,112.500=136.000,112.833=136.000,113.000=136.000,214.000=20.000,214.083=136.000,214.500=20.000,214.583=136.000,215.000=20.000,215.083=136.000,215.500=20.000,215.583=136.000,216.000=20.000,216.083=136.000,216.500=20.000,216.583=136.000,219.000=20.000,219.083=136.000,219.500=20.000,219.583=136.000,220.000=20.000,220.083=136.000,220.500=20.000,220.583=136.000,221.000=20.000,221.083=136.000,221.500=20.000,221.583=136.000,229.500=159.950,239.500=159.950,240.000=159.950,501.500=161.980,512.000=161.980;
#STOPS:;
#KEYSOUNDS:;
#BANNER:[REMIX] 幽灵盛典 + V3 + Love is a Danger Zone 2.png;
#BACKGROUND:[REMIX] 幽灵盛典 + V3 + Love is a Danger Zone 2.png;
#CDTITLE:../CDTitles/4DSS.png;
#BGCHANGES:-14.700=[REMIX] 幽灵盛典 + V3 + Love is a Danger Zone 2.avi=1.000=0=0=1,
229.000=[REMIX] 幽灵盛典 + V3 + Love is a Danger Zone 2.png=1.000=0=0=1,
99999=-nosongbg-=1.000=0=0=0
;
#NOTES:
     ds3ddx-single:
     Remix:
     Challenge:
     6:
     :
00000000
00000000
00000000
00000000
,
00000000
00000000
00000000
00000000
,
00000000
00000000
00000000
00000000
,
00000000
00000000
00100000
10000000
,
10000000
00000100
00000001
00000001
,
01000000
10000000
10000000
00000010
,
00000001
00000000
00000001
00000000
00100000
10000000
00000100
00000001
,
01000000
00000010
00010000
00000000
00000000
00000000
00000000
00000000
,
00100000
00000100
00100000
00000100
10010000
00000000
01000000
00000010
,
01000000
00000010
10000001
00000000
00100000
00100000
00100000
00100000
,
00010000
00000000
00000010
00000010
00000010
00000010
00010000
00000000
,
00000000
00000000
00000000
00100100
,
00000000
01100000
00000000
00000000
01000010
00000000
00000000
00000110
,
00000000
00000000
10100000
00000101
11000000
00000011
00110000
00010100
,
01000001
10000010
00110100
00000000
00000000
00000000
00000000
00000000
,
10000001
00000000
00000000
00000000
00100000
00000100
01000000
00000010
00000000
00100000
00000000
00000000
,
00000100
00000000
10100000
00000000
00000000
00000000
01000000
00000000
00000010
00000000
11000000
00000000
00000000
00000000
00000000
00000010
00000000
01000000
00000000
00000011
00000000
00000000
00000000
00000000
,
00000000
00000000
00000000
00100000
00000000
00000000
00000100
00000000
00000000
00100000
10000000
00000000
00000000
00000000
00000000
00000010
00000000
00000000
00000000
00000000
00000000
01000000
00000000
00000000
00000000
00000000
00000000
00000100
00000000
00000000
00000000
00000000
00000000
00100000
00000000
00000000
00000000
00000000
00000000
00000010
00000000
00000000
00000000
00000000
00000000
00000000
00000000
00000000
,
11000000
00000000
00000000
00000100
00000000
00000000
00000000
01000000
00000000
00000010
00000000
11000000
00000000
00000100
00100000
00000000
00000100
00000000
00000000
00000000
00000000
00000000
00000000
00000000
,
00000000
00000000
00000000
00000011
00000000
00100000
00000100
01000000
00000000
00000100
00000000
00000000
,
00000100
00000000
00100000
00000000
00000000
01000000
00000010
11000000
00000000
00000000
00000000
00000000
00000010
01000000
00000011
00000000
,
00000000
00100000
00000100
10100000
00000000
00000010
00000000
01000000
00000000
00000100
00000000
00100000
00000000
00000010
00000000
00000000
,
11000000
00000000
00000000
00000000
00000100
00000000
00000000
00000000
00000000
00000000
00100000
00000000
00000100
00000000
00000000
01000000
00000000
00000000
00000100
00000000
00000000
01000000
00000000
00000000
,
00000100
01000000
10100000
00000101
11000000
00000011
00110000
00010100
,
01000001
00000000
00000000
10000010
00000000
00000000
00110000
00000000
00000000
00010100
00000000
00000000
00000000
00000000
10100000
00000000
00000000
00000101
00000000
00000000
11000000
00000000
00000000
00000011
,
00000000
01000000
00000000
00000101
00000000
00000000
00000000
00000000
00000000
00000000
00000000
00000000
00100100
00000000
00000000
00000000
,
10000001
00000000
00000000
00000000
00000000
00000000
00000000
00000000
00000000
00000000
00000000
00000000
00000100
00000000
00000000
00000000
00000000
00000000
11000000
00000000
00000000
00000000
00000000
00000000
00000010
00000000
00000000
00000000
00000000
00000000
01000000
00000000
00000000
00000000
00000000
00000000
00000100
00000000
00000000
00000000
00000101
00000000
00000000
00100000
00000000
00000000
00000000
10100000
,
00000000
00000000
00000000
00000100
00000000
00000000
00000100
00000001
00000000
00000000
00000000
00100000
00000000
00000000
11000000
00000000
00000000
00000000
00000000
00000000
00000000
00000000
00000000
00000000
00100000
00000000
00000000
00000100
00000000
00000000
00100000
00000000
00000000
00000000
00000000
00000000
00000010
00000000
00000000
01000000
00000000
00000000
00000010
00000000
00000000
00000000
00000000
00000000
,
00100000
01000000
00100000
00000000
00000100
00000010
00000100
00000000
01000000
00000000
00000000
00000000
11000000
00000000
00000000
00000000
,
00000010
00000000
00000000
00000000
00000011
00000000
00000000
00000000
00100000
00000100
00100000
00000100
01000000
00000010
01000000
00000010
,
00100000
00100000
00100000
00100000
00000100
00000100
00000100
00000100
00000010
00000000
01000000
00000000
00000011
00000000
00000000
00000000
,
00100000
00000100
11000000
00000000
00000100
00100000
00010010
00000000
,
00100000
00000100
01010000
00000000
00000010
00000010
01000000
01000000
,
00100000
00100000
00000010
00000010
00000100
00100000
00000100
00100000
,
00000010
01000000
00000010
01000000
00000100
00100000
11000000
00000000
,
00100000
00000100
00000011
00000000
01000000
00000100
00000011
00000000
,
00000010
00100000
11000000
00000000
00000101
00000000
10100000
00000000
,
00000011
00000000
11000000
00000000
00000010
00000010
01000000
01000000
,
00000100
00000100
00100000
00100000
01000000
00000000
01000000
00000010
,
00000010
00000000
00000000
00000000
01000000
00000000
01000000
00000000
00000010
00000000
01000000
00000010
00000000
00000000
00000000
00000000
,
00000000
00000000
00000000
00000000
00010000
00000000
00000000
00000000
00000000
00000000
00000000
00000000
00000100
00000000
00000000
00000100
00000000
00000000
00000100
00000000
00000000
00000100
00000000
00000000
,
01000000
01000000
01000000
01000000
00000010
00000000
10100000
00000000
,
01000000
00000000
00000101
00000000
01000000
01000000
01000000
01000000
,
00000100
00000100
00000100
00000100
01000000
00000000
00000101
00000000
,
00100000
00000000
00000011
00000000
01000000
00000010
11000000
00000010
,
01000000
00010100
01000000
00000010
10100000
00000100
01000000
00000101
,
00000010
00100000
10100000
01010000
00000100
00000010
00000101
00000000
,
00100000
01000000
10100000
00000000
00000011
01000000
00000101
00000000
,
00100000
00000000
00000100
00000000
00100000
01000000
10100000
00000000
,
00000100
00000010
00000101
00000000
00100000
01000000
10100000
00000000
,
00000100
00000010
00000101
00000000
01000000
01000000
00000010
00100000
,
00000100
01000000
00000011
01000000
00000100
01000000
00000100
01000000
,
00000010
00100000
00000100
11000000
00000010
01000000
00000101
00100000
,
00000010
00100000
00000010
00000000
11000000
00000011
10100000
00000101
,
01010000
00000000
00010010
00000000
00000010
00000000
00100000
00000000
01000000
00000100
00000000
00000000
00000011
00000000
11000000
00000000
,
00000101
10100000
00000101
11000000
00100000
00000100
00000010
01000000
,
00000000
00000000
00000000
00000000
,
00000000
00000000
00000000
00100000
00000000
00100000
00000000
00000100
,
00000000
00000100
00000000
01000000
00000000
11000000
00000000
00000100
,
00000000
01000000
00000000
00000011
00000000
01000000
00000000
00000101
,
00000000
00010100
00000000
01000000
00000000
00000110
00000000
00100100
,
00000000
01100000
00000000
00000100
00000000
00000100
00000000
00100000
,
00000000
00110000
10000000
00000010
00000000
00000010
00000000
01000000
,
00000000
00010010
00000001
00100000
00000000
00000100
00000000
00000100
,
00000000
01010000
00000000
00000010
00000000
00000010
00000000
01000000
,
00000000
01000000
00000000
00100010
00000000
00000010
00000000
00100000
,
00000000
00000101
00000000
01000000
00000000
00000010
00000000
11000000
,
00000000
00000000
00000000
00000100
00000000
00100000
00000000
00000011
,
00000000
11000000
00000000
00000011
00000000
00000000
00000000
00000000
,
00000000
01000000
00000010
00110000
00000000
00000000
00000000
01000010
,
00000000
00000010
01000000
00010100
00000000
00000000
00000000
01000010
,
00000000
01000000
00000010
00100100
00000000
00100000
00000100
00100100
,
00000000
01000000
00000100
00000011
00000000
00000011
00000000
00000011
,
00000000
00000100
00000000
00100000
00000000
00000010
00000000
00000010
,
00000000
11000000
00000000
00000100
00000000
00100000
00000000
00000101
,
00000000
01000000
00000000
00000010
00000000
00100000
00000000
00000011
,
00000000
11000000
00000000
00110000
00000000
00000000
00000000
00100000
,
00000000
01000000
00000010
00110000
00000000
00000000
00000000
01000010
,
00000000
00000010
01000000
00010100
00000000
00000000
00000000
01000010
,
00000000
00000100
00100000
00000010
00000000
00000100
01000000
00000010
,
00000000
00000100
00100000
11000000
00000000
00000101
00000000
00000101
,
00000000
01000000
00000000
00000010
00000000
01000000
00000000
00000101
,
00000000
00000101
00000000
01000000
00000000
00000010
00000000
00000011
,
00000000
11000000
00000000
01000000
00000000
00000010
00000000
00000101
,
00000000
00000101
00000000
00000010
00100000
01000000
00000100
00100000
,
00000000
00000000
00000000
01000000
00000000
01000000
00000000
00000101
,
00000000
00000101
00000000
00000010
00000000
00000010
00000000
10100000
,
00000000
10100000
00000000
00000100
00000000
00000010
00000000
11000000
,
00000000
11000000
00000000
00000010
00100000
00000100
01000000
00000010
,
01000000
00000010
00100000
00000100
01000000
00000010
01000000
00000100
,
01000000
00000010
00100000
00000100
01000000
00000010
00000000
01000000
,
00000000
00000011
00000000
00000100
00000000
00100000
00000100
00000100
,
00100000
01000000
00000100
00000010
00100000
00000010
01000000
00000100
,
00000100
11000000
00000000
00000100
00100000
00000100
00100000
00000010
,
01000000
00000010
01000000
00000100
00000010
00000100
00000010
00100000
,
01000000
00100000
01000000
00000110
00000000
00000000
01000010
00000000
,
00000000
01000010
00000000
00000000
00100100
00000000
00000000
01000010
,
00000000
10100001
00000000
01100000
00000000
00000000
00100100
00000000
,
00000000
00100100
00000000
00000000
01000010
00000000
00000000
00000100
,
00000000
10100001
00000000
00000100
00100000
00000100
00000010
00100000
,
00000100
00100000
01000000
00000010
00000100
00000100
00100000
01000000
,
00100000
00000100
01000000
00100000
01000000
00100000
00000100
00000010
,
00000100
00000010
00100000
00000100
00100000
01000000
00000100
00000010
,
00000010
00100000
00000100
00100000
01000000
00000010
00000100
00100000
,
01000000
00000100
01000000
01000000
00100000
00000100
00000010
00000010
,
00000100
00100000
01000000
00100000
00000100
00000100
00100000
01000000
,
00000010
00000100
00100000
01000000
00000010
00000100
00100000
01000000
,
00000010
00000100
00100000
00000000
10000001
00010000
10000000
00000001
,
00000001
10000000
00010000
00010000
10000000
00010000
00000001
00010000
,
10000000
00010000
00000001
00000001
00010000
10000000
10000000
00010000
,
00010000
00000001
00000001
00001000
10000000
00010000
10000000
00010000
,
00000001
00001000
00000001
00010000
10000000
00000001
10000000
00010000
,
00000001
00010000
00000001
10000000
00010000
10000000
00010000
00001000
,
00000001
10000000
00010000
00000001
00010000
00000001
10000000
00010000
,
10000000
00010000
10000000
00010000
00000001
00001000
10000000
10000000
,
00000001
00000001
00000000
00100000
00000000
10100000
00000000
00000100
,
00000000
00000101
00000000
00100000
00000100
00100000
00000100
01000000
,
00000010
01000000
00000010
00100000
00000000
10100000
00000000
00000100
,
00000000
00000011
00000000
00110000
00000000
00010100
00000000
01010000
,
00000000
00010010
00000000
01000000
00000000
00110000
00000000
00000100
,
00000000
00000011
00000000
00100000
00000000
00110000
00000000
00000100
,
00000000
00000101
00000000
01100000
00000000
01100000
00000000
00100100
,
00000000
00100100
00000000
00000110
00000000
00000110
00000000
01000010
,
00000000
01000010
00000000
00100000
00000100
00000010
01000000
00100000
,
00000100
01000000
00000010
00100000
01000000
00100000
01000000
00000100
,
00000010
00000100
00000010
01000000
00000100
00100000
00000010
01000000
,
00000100
00100000
00000010
01000000
00000100
00100000
00000010
01000000
,
00000100
00000000
00000000
00100000
00000011
00000000
00000000
00000000
00000000
00000000
00000000
00000000
00000000
00000000
00000000
00000000
00000000
00000000
00000000
00000000
00000000
00000000
00000000
00000000
,
11000000
00000000
00000011
00000000
,
10100000
00000000
00000101
00000000
,
11000000
00000011
00100000
00000100
,
00100000
01000000
00100000
01000000
00000100
00000010
00000100
00000010
,
01000000
00000100
00100000
00000100
01000000
00000010
00100000
00000100
,
00100000
01000000
00000010
01000000
00000010
00100000
00000100
01000000
,
00000100
00100000
00000010
00000100
01000000
00100000
00000100
01000000
,
00000010
11000000
00000000
00000000
00010000
00000000
00000000
00010100
,
00000000
00100000
00000000
00000101
00000000
00000000
00000000
00000000
,
00000000
01000000
00000000
01000000
00000000
01000000
00000000
01000000
,
00000000
00000010
01000000
00000100
00100000
00000010
00100000
00000100
,
00000000
01000000
00000010
11000000
00000100
01000000
00000011
00000000
,
00100000
00000100
11000000
00000000
00000100
00100000
00000011
00000000
,
01000000
01000000
00000011
11000000
,
00000100
01000000
00000010
00100000
00000000
00000000
00010101
00000000
,
01000000
00000100
00100000
00000010
01000000
00000010
11000000
00000000
,
00000100
00100000
00000101
00000000
01000000
00000010
11000000
00000000
,
00010100
00110000
00000000
00000000
,
00000010
00000011
01000000
10100000
,
00000100
00100000
01000000
00000010
00000100
00100000
00000010
01000000
,
00000100
00100000
00000010
00100000
00000100
00100000
00000011
00000000
,
01000000
11000011
00000000
00000000
,
00000010
00000101
00100000
00000101
,
01000000
00000100
00100000
00000010
00100000
00000100
01000000
00000010
,
00100000
01000000
00100000
00000010
01000000
00000011
00000000
00000000
,
01000000
00000011
00000000
00000000
,
00100000
11000000
00000100
00000011
,
11000000
00000000
00000000
00000000
;
