#TITLE:[REMIX] 双刀 + 霍元甲 + 双截棍 + 龙拳;
#SUBTITLE:~ Dual Swords + Huo Yuanjia + Nunchaku + Dragon Fist;
#ARTIST:Jay Chuo;
#TITLETRANSLIT:Shuāng dāo + huò yuán jiǎ + shuāng jié gùn + lóng quán;
#SUBTITLETRANSLIT:;
#ARTISTTRANSLIT:;
#GENRE:;
#CREDIT:locuuraa;
#LYRICSPATH:;
#MUSIC:[REMIX] 双刀 + 霍元甲 + 双截棍 + 龙拳.ogg;
#OFFSET:1.120;
#SAMPLESTART:11.460;
#SAMPLELENGTH:12.000;
#SELECTABLE:YES;
#BPMS:0.000=138.790,124.000=134.730,190.000=100.970,335.000=139.430;
#STOPS:;
#KEYSOUNDS:;
#BANNER:[REMIX] 双刀 + 霍元甲 + 双截棍 + 龙拳.png;
#BACKGROUND:[REMIX] 双刀 + 霍元甲 + 双截棍 + 龙拳.png;
#CDTITLE:../CDTitles/4DSS.png;
#BGCHANGES:-14.700=[REMIX] 双刀 + 霍元甲 + 双截棍 + 龙拳.avi=1.000=0=0=1,
229.000=[REMIX] 双刀 + 霍元甲 + 双截棍 + 龙拳.png=1.000=0=0=1,
99999=-nosongbg-=1.000=0=0=0
;
#NOTES:
     ds3ddx-single:
     Remix:
     Challenge:
     5:
     :
00000000
00000000
00000000
00000000
,
00000000
00000000
00000000
00000000
,
00000000
00000000
00000000
00000000
,
00000000
00000000
00000000
00000000
,
00000000
00000000
00000000
00000000
,
00000000
00000000
00000000
00000000
,
00000000
00000000
00000000
00000000
00000000
00000000
00000000
00000000
00010000
00000000
00000000
00000000
,
10000000
00000000
00000000
00000001
00000000
00000000
00000000
00000000
00000000
00000000
00000000
00010000
,
00000000
00010000
00000000
00000000
00000001
00000000
10000000
00000000
00000000
00000000
00000000
00000000
,
00000000
00000000
00000000
00000000
,
00000000
00000000
00000000
00000000
,
00000000
00000000
00000000
00010000
,
00000000
00000001
00000000
00000000
10000000
00000000
00000000
00000000
00000000
00000000
00000000
00000000
,
00010000
00000000
00010000
00000000
00000000
10000000
00000000
00000001
00000000
00000000
00000000
00000000
,
00000000
00000000
00000000
00010000
00000000
10000000
00000000
00110000
00000000
00100000
00000000
00000001
,
00000000
00010000
00000000
00000101
00000000
00000100
00000000
10000000
00000000
00000001
00000000
11000000
,
00000000
00000001
00000000
01000000
00000000
00000010
00000000
00010000
00000000
00001000
00000000
00000000
,
00010000
00000000
10000000
00000000
00110000
00000000
00100000
00000000
00000001
00000000
00010000
00000000
,
00000101
00000000
00000100
00000000
10000000
00000000
00000001
00000000
11000000
00000000
00000001
00000000
,
00100000
00000100
00000000
00100000
10000001
00000000
00000000
00000000
00000000
00000000
00000000
00000000
,
00000000
00000000
00000000
00000000
00100001
00000000
00000100
10000000
,
00000000
00000000
00000000
00000000
00000000
00000000
00110000
00000000
00000000
00000000
00000000
00000000
11000000
00000000
00000000
00000001
00000000
00000000
00000000
00000000
01000000
00000000
00000000
00000000
,
00000000
00000000
01000000
00000010
01000000
00000000
01010000
00000000
,
00000100
00000000
00000000
00000000
00000000
00000000
00000000
00000000
00000100
00000000
00000000
00000000
00000000
00000000
00000000
00000000
00000000
00000000
00100000
00000000
00000000
00000000
00000000
00000000
00000000
00000000
00000000
00100000
00000000
00000000
00000000
00000000
00000000
00000000
00000000
00000000
00000100
00000000
00000000
00000000
00000000
00000000
00100000
00000000
00000000
00000000
00000000
00000000
,
00000000
00000000
00010000
00000000
00000010
00000000
00000010
00000000
01000000
00000000
00000000
00010000
00000000
00000000
00100000
00000000
,
00000100
00000000
00000000
00100000
00000000
00000000
00000000
00010000
00000000
00000000
00000000
00000000
00000100
00000000
00000001
00000000
,
00100000
00000000
10000000
00000000
00000100
00000000
01000000
00000000
00000000
01000001
00000000
00000000
00100000
00000000
00000000
00000100
,
00000000
00000000
00000000
10000000
00000000
00000000
00000000
00000000
00000000
00000000
00000000
00000000
00110000
00000000
00000000
00000000
00000000
00000000
00000000
00000000
00000000
00000000
00000000
00000000
00000000
00000000
00000000
00000000
00000100
00000000
00000000
00000000
00000000
00000000
00000000
00000000
00000010
00000000
00000000
00000000
00000000
00000000
00000000
00000000
00000100
00000000
00000000
00000000
,
00010000
00000000
10000000
00000000
00000000
00000000
00000100
00000000
00010000
00000000
00000000
00100000
00000000
00000000
00000010
00000000
,
01000000
00000000
00000000
00000000
00000010
00000000
00000001
00000000
00000100
00000000
00000000
00100000
00000000
00000000
01000000
00000000
,
00000000
01000000
00000000
00000000
00100000
00000000
00010000
00000000
00100000
00000000
00000000
00000001
00000000
00000000
00000000
00000000
,
00100000
00000000
10000000
00000000
00000000
00000001
00000001
00000001
,
10000000
00000000
00000000
00100000
00000000
00000000
00000100
00000000
,
01000000
00010000
00000000
00000010
00000000
00000000
00000001
00000000
,
10000000
00000000
00000000
10000000
10000000
10000000
00000001
00000000
,
00000000
00000100
00000000
00000000
00100000
00000000
00000010
00010000
,
00000000
01000000
00000000
00000000
10000000
00000000
00000001
00000000
,
00000000
00001000
00001000
00001000
10000000
00000000
00000000
00000010
,
00000000
00000000
01000000
00000000
00000010
00000100
00000000
10100000
,
00000000
00000000
00000001
00000000
10000000
00000000
00000000
00001000
,
00001000
00001000
00000001
00000000
00000000
01000000
00000000
00000000
,
00000010
00000000
01000000
00100000
00000000
00000101
00000000
00000000
,
01000000
00000000
00100000
00000000
11000000
00000000
00000000
00000000
00000010
00000000
00000100
00000000
,
00000011
00000000
00000000
00000000
00100000
00000000
00000100
00000000
10100000
00000000
00000000
00000000
,
00000100
00000000
01000000
00000000
00000011
00000000
00000000
00000000
00000000
00100000
00000000
00000100
,
00000000
10100000
00000000
00000000
00000000
00000100
00000000
00000010
00000000
00000101
00000000
00000000
,
00000000
00000010
00000000
01000000
00000000
00001010
00000000
00000000
00000000
01000000
00000000
00100000
,
00000000
00000000
01010000
00000000
00000000
00000000
00000000
00000000
00000000
00000000
00000000
00000000
00100000
00000000
00000000
00010000
00000000
00000000
00000100
00000000
00000000
10000000
00000000
00000000
,
00100000
00010000
00000100
00000001
00100000
01000000
00000100
00000010
,
01000000
00000010
01000000
00010000
00100000
10000000
00000100
00000001
,
00100000
00100000
00010000
00010000
00000010
00000001
01000000
10000000
,
00000010
00000010
00001000
00001000
01000000
00000000
00000010
00000000
,
00100000
11000000
00000010
00000100
,
00100000
01000000
01000000
00100000
,
00000100
00000011
00100000
01000000
,
00100000
00000101
00000010
01000000
,
10100000
00000100
00100000
01000000
,
00100000
00000011
00000100
00100000
,
01000000
00000100
00000010
00100000
,
00100000
00000000
01000000
00000000
00000010
00000001
00000010
00000001
,
00000000
00000000
00000000
00000000
01000000
10000000
01000000
10000000
,
00000000
00000000
00000000
00000000
00100000
10000000
00100000
10000000
,
00000100
00000010
01000000
00100000
,
00000100
00000100
00010000
01000000
,
00000100
00100000
00000010
01000000
,
00100000
00000100
00000010
00100000
,
00000100
01000000
00100000
00000100
,
00000010
00000000
01000000
00000000
00100000
00010000
00100000
00010000
,
00000000
00000000
00000000
00000000
00000100
00010000
00000100
00010000
,
00000000
00000000
00000000
00000000
00000010
10000000
01000000
00000001
,
00000000
00000000
00011000
00001000
,
00000000
00000000
00000000
00000000
00001000
00001000
00001000
10000001
,
00000000
00000000
00000000
00000000
00001000
00001000
00001000
10000000
,
00000000
00000000
00000000
00000000
00000010
01000000
00100000
00000100
,
00000000
00000000
00000000
00000000
00000100
00100000
01000000
00000010
,
00000000
00000000
00100000
00000101
,
00110000
01000000
00000011
01000000
,
11000000
00000100
00110000
00000010
,
01000000
00101000
11000000
00110000
,
00000101
00000000
00001010
00000000
10000001
00000010
01000000
00000010
,
01000000
00000000
00010000
00000000
00011000
00100000
00000100
00100000
,
00000100
00000000
00001000
00000000
10001000
01000000
00100000
01000000
,
00100000
00010000
00011001
00000000
,
00000000
00000000
00000000
00000000
00000000
00000000
00000000
00000000
00000000
00000100
00000000
00000010
,
00000000
10000100
00000000
00000000
00000000
00000000
00100000
00000000
01000000
00000000
00100001
00000000
,
00000000
00000000
00000000
00100000
00000000
00000100
00000000
10100000
00000000
00000000
00000000
00000000
,
01000000
00000000
00000010
00000000
01000001
00000000
00000000
00000000
00000000
00100000
00000000
00100000
,
00000000
00000100
00000000
00010000
00000000
00000000
00000010
00000000
00100000
00000000
01000000
00000000
,
00000100
00000000
00000000
00010000
00000000
00010000
00000000
00001000
00000000
00001000
00000000
00000000
,
00100000
00000000
00000100
00000000
00000010
00000000
01000000
00000000
00000000
00010000
10000000
00000000
,
00000000
00100100
00000000
00000000
00000000
00000000
00010000
00000001
00000000
00000000
01000010
00000000
,
00000000
00000000
00000000
01000000
00000000
01000000
00000000
00000010
00000000
00000010
00000000
00000100
,
00000000
00100000
00000000
01000000
00000000
00000010
00000000
00000000
00000000
00010000
10000000
00000000
,
00000000
00000100
00000000
00100100
00000000
00000000
00010000
00000001
00000000
00000000
00000010
00000000
,
01000010
00000000
00000000
00110000
10000000
00000000
00000000
00010100
00000001
00000000
00000000
00000000
,
10000000
00000000
00000001
00000000
00010000
00000000
00001000
00000000
00000000
00000000
00000000
00000000
,
00000000
00000000
00000000
00000000
,
00000000
00000000
00000000
00000000
,
00000000
00000000
00000000
00000000
,
00000000
00000000
00000000
00000000
,
00000000
00011000
00000000
00000000
,
00000000
00000000
00000000
00000000
00000000
00000000
00010000
00000000
00000000
00100000
00000000
00100000
,
00000000
00000100
00000000
00000100
00000000
00000000
01000000
00000000
01000000
00000000
00000010
00000000
,
00000010
00000000
00000000
00100000
00000000
00000100
00000000
00000010
00000000
01000000
00000000
00000000
,
00100000
00000000
01000000
00000000
00000010
00000000
00000100
00000000
00000000
01000000
00000000
01000000
,
00000000
00000010
00000000
00000010
00000000
00000000
00100000
00000000
00000100
00000000
00000010
00000000
,
01000000
00000000
00000000
00010000
10000000
00000000
00000000
00010000
00000001
00000000
00000000
00000000
,
10000001
00000000
00000000
00000000
00001000
00000000
00000000
00000000
00000000
00100000
00000000
00000100
,
00000000
00100000
00000000
00100000
00000000
00000000
00000010
00000000
01000000
00000000
00010000
00000000
,
00000000
00000000
00000000
00100000
00000000
01000000
00000000
00100000
00000000
00010000
00000000
00000000
,
00000100
00000000
00000010
00000000
10000100
00000000
00000000
00000000
00000000
01000000
00000000
00000100
,
00000000
00000010
00000000
00000010
00000000
00000000
00000100
00000000
00100000
00000000
00010000
00000000
,
00000000
00000000
00000000
00100000
00000000
00000100
00000000
00010000
00000000
00010000
00000000
00000000
,
00000010
00000000
01000000
00000000
00100000
00000000
00011000
00000000
00000000
00000100
00000000
00100000
,
00000000
00000100
00000000
00000100
00000000
00000000
01000000
00000000
00000010
00000000
00001000
00000000
,
00000000
00000000
00000000
01000000
00000000
00100000
00000000
01000000
00000000
00001000
00000000
00000000
,
00000010
00000000
00000100
00000000
10000010
00000000
00000000
00000000
00000000
00000100
00000000
01000000
,
00000000
00000100
00000000
00000100
00000000
00000000
00000010
00000000
01000000
00000000
00001000
00000000
,
00000000
00000000
00000000
01000000
00000000
00000010
00000000
00001000
00000000
00001000
00000000
00000000
,
00000100
00000000
00100000
00000000
01000000
00000000
10000001
00000000
00000000
00100000
00000000
00000100
,
00000000
00100000
00000000
00100000
00000000
00000000
00000010
00000000
01000000
00000000
00010000
00000000
,
00000000
00000000
00000000
00100000
00000000
01000000
00000000
00100000
00000000
00010000
00000000
00000000
,
00000100
00000000
00000010
00000000
10000100
00000000
00000000
00000000
00000000
01000000
00000000
00000100
,
00000000
00000010
00000000
00000010
00000000
00000000
00000100
00000000
00100000
00000000
00010000
00000000
,
00000000
00000000
00000000
00100000
00000000
00000100
00000000
00010000
00000000
00010000
00000000
00000000
,
00000010
00000000
01000000
00000000
00100000
00000000
00011000
00000000
00000000
00000100
00000000
00100000
,
00000000
00000100
00000000
00000100
00000000
00000000
01000000
00000000
00000010
00000000
00001000
00000000
,
00000000
00000000
00000000
01000000
00000000
00100000
00000000
01000000
00000000
00001000
00000000
00000000
,
00000010
00000000
00000100
00000000
10000010
00000000
00000000
00000000
00000000
00000100
00000000
01000000
,
00000000
00000100
00000000
00000100
00000000
00000000
00000010
00000000
01000000
00000000
00001000
00000000
,
00000000
00000000
00000000
01000000
00000000
00000010
00000000
00001000
00000000
00001000
00000000
00000000
,
00000100
00000000
00100000
00000000
01000000
00000000
10000001
00000000
00000000
00000000
00000000
00000000
;
