#TITLE:[REMIX] 不要惹我 + 半 + 1,2,3,4 007;
#SUBTITLE:~ Forbidden Love + Ban + 1,2,3,4 007;
#ARTIST:李贞贤 & Ni-Ni;
#TITLETRANSLIT:Bùyào rě wǒ + bàn + 1,2,3,4 007;
#SUBTITLETRANSLIT:;
#ARTISTTRANSLIT:Lee Jung Hyun & Ni-Ni;
#GENRE:;
#CREDIT:locuuraa;
#LYRICSPATH:;
#MUSIC:[REMIX] 不要惹我 + 半 + 1,2,3,4 007.ogg;
#OFFSET:0.780;
#SAMPLESTART:11.860;
#SAMPLELENGTH:12.000;
#SELECTABLE:YES;
#BPMS:0.000=141.510,427.000=125.000,429.000=141.510;
#STOPS:;
#KEYSOUNDS:;
#BANNER:[REMIX] 不要惹我 + 半 + 1,2,3,4 007.png;
#BACKGROUND:[REMIX] 不要惹我 + 半 + 1,2,3,4 007.png;
#CDTITLE:../CDTitles/4DSS.png;
#BGCHANGES:-14.700=[REMIX] 不要惹我 + 半 + 1,2,3,4 007.avi=1.000=0=0=1,
229.000=[REMIX] 不要惹我 + 半 + 1,2,3,4 007.png=1.000=0=0=1,
99999=-nosongbg-=1.000=0=0=0
;
#NOTES:
     ds3ddx-single:
     Remix:
     Challenge:
     6:
     :
00000000
00000000
00000000
00000000
,
00000000
00000000
00000000
00000000
,
00000000
00000000
00000000
00000000
,
00000000
00000000
00000000
00000000
,
00000000
00000000
00000000
00000000
,
00000000
00000000
00000000
00000000
,
00000000
00000000
00000000
00000000
,
00000000
00000000
00000000
00000000
,
00000000
00000000
10100000
00000101
,
01000000
01000010
11000000
00000011
,
00000100
00100100
00100000
00000100
,
10000000
00000001
10000000
00000000
01000000
00000000
00000010
00000000
,
10000000
00010000
00000001
00000000
10100000
00000000
00000101
00000000
,
01000000
01000010
11000000
00000011
,
00000100
00100100
00100000
00000100
,
10000000
00000001
10000000
00000000
01000000
00000000
00000010
00000000
,
10000000
00010000
00000001
00000000
00100000
00000000
01100000
00000000
,
00000100
00000110
00100000
00000100
,
01010000
00000000
00000010
00000010
00000001
00000000
01000000
00000000
,
00000100
00100000
00000100
00000100
,
00000010
00000000
01000000
01000000
10000000
00000000
01000010
00000000
,
00000000
00100100
00000000
10100000
,
00000000
00000000
00010100
00000000
00000100
00000100
00000001
00000000
,
00000000
00100100
00000000
00000110
,
00000000
00000000
00100000
00100000
10000000
00000000
00000100
00000000
,
00000010
00100000
01000000
01000000
,
00000010
00000000
01000000
01000000
10000000
00000000
00000100
00000000
,
00000100
00000010
01000000
00110000
,
00000101
00000000
00000010
00000010
00000001
00000000
00000110
00000000
,
00000000
01000010
00000000
00100100
,
00000000
01100000
00000000
00100000
,
00000100
00000010
01000000
00110000
,
00000100
01000000
10000000
10000000
,
10000000
00011000
00000001
00000001
,
00000001
00011000
00100000
01000000
,
00000010
00000100
01000000
00000100
,
00100000
00000010
00000001
00000001
,
00000001
00011000
10000000
10000000
,
10000000
00011000
00000000
00100000
,
00000010
00000000
01000000
00000000
10000001
00000000
00000000
10000000
,
00000001
00000000
00000000
10000000
00010000
00000000
00000000
00000000
,
00000000
00000000
00000100
00100000
,
01000000
00000000
00000010
00000010
00000001
00000000
01000000
00000000
,
00000010
00100000
00000100
00100000
,
00000010
00000000
01000000
01000000
10000000
00000000
00000010
00000000
,
00000010
00100000
00000100
00100000
,
01000000
00000000
00100000
00100000
10000000
00000000
00000100
00000000
,
00000010
00100000
01000000
00100000
,
00000100
00000000
00000010
00000010
00000001
00000000
00100000
00000000
,
00000100
00000000
00100000
00100000
10000000
00000000
00010100
00000000
,
01000000
00000000
00000010
00000010
00000001
00000000
01000000
00000000
,
01000000
00100000
00000100
00000011
,
00100000
00000000
00000100
00000100
00000001
00000000
01000000
00000000
,
00000100
00100000
00000010
01000000
,
00100000
00000100
00100000
00000100
,
00100000
00000000
00000010
00000010
00000001
00000000
11000000
00000000
,
01000010
01100000
00011000
00000000
,
00000000
00000000
00000000
00000000
00100000
00000100
00110000
00000000
,
00000010
01000000
00010010
00000000
01000000
00000100
11000000
00000000
,
00000010
00100000
00000011
00000000
00000100
00000010
00000101
00000000
,
00100000
01000000
10100000
00000000
01000000
00100000
11000000
00000000
,
00000010
00000100
00000011
00000000
00100000
00000100
00110000
00000000
,
00000010
01000000
00010010
00000000
01000000
00000100
11000000
00000000
,
00000010
00100000
00000011
00000000
00000100
00000010
00000101
00000000
,
00100000
01000000
10100000
00000000
01100000
00000000
00100100
00000000
,
00000110
01000010
01010000
00000000
,
00000010
01000000
00000010
01000000
10000001
00000000
10000001
00000000
,
00100000
00000100
00100000
00000100
10000001
00000000
00000000
00000000
,
01000000
00100000
01000000
00100000
00011000
00000000
00011000
00000000
,
00000100
00000010
00000100
00000010
10000001
00000000
00000000
00000000
,
00000100
00000100
00100000
00100000
10010000
00000000
00010001
00000000
,
01000000
01000000
00000010
00000010
00011000
00000000
00000000
00000000
,
00100000
00000010
00000100
01000000
10000001
00000000
00011000
00000000
,
01000000
00000010
00000100
00100000
00000000
00000000
00000101
00000000
,
00000000
10100000
00000000
11000000
,
00000000
00000011
00000000
01010000
,
00000000
00000101
00000000
00110000
,
00000000
00000011
00000000
11000000
,
00000000
00000011
00000000
00110000
,
00000000
10000100
00000000
01010000
,
00000000
00010100
00000000
00000011
,
00000000
11000000
00000000
00010100
,
00000000
00110000
00000000
10000010
,
00000000
01000001
00000000
00010100
,
00000000
10100000
00000000
00000101
,
00000000
00000000
00100000
00100000
,
00010000
00000000
00000010
00000010
,
10000000
00000000
10100000
00000000
,
00110000
00000000
00000001
00000001
,
00000001
00000001
00011000
00000000
,
00000000
00000000
00100000
00100000
,
00000100
00000100
00100000
10000000
,
00000001
10000000
00000010
00000010
,
01000000
01000000
10000000
00000001
,
10000000
00000001
00100000
00000010
,
01000000
00000100
10100000
00000100
,
10000000
00100000
00000001
10000000
,
10000000
10000000
00011000
00100000
,
00000010
00000100
00100000
10000000
,
10000000
10000000
00000011
01000000
,
00000010
00100000
00000100
00010000
,
00010000
00010000
11000000
00000101
,
00000000
10100000
00000000
00000011
,
00000000
11000000
00000000
00010100
,
00000000
00110000
00000000
00010010
,
00000000
01010000
00100000
00000100
,
01000000
00000010
10000001
00000000
,
00000000
00000000
00000100
00000100
,
00100000
00100000
01000000
01000000
,
00000010
00000010
00100000
00000001
,
00000100
10000000
00100000
00010000
,
00000100
00010000
01000000
01000000
,
00000010
00000010
00000100
00100000
,
00000100
00000100
00000010
00100000
,
00100000
00000100
01000000
01000000
,
00000100
01000000
00000010
00100000
,
00100000
00000100
00000010
01000000
,
00100000
00000100
01000000
00000010
,
01000000
01000000
00000100
00100000
,
00000100
01000000
00000010
00100000
,
00100000
00000100
00000100
00100000
,
01000000
00000010
00000100
10000000
,
00000001
10000000
00010000
00000001
,
00001000
10000000
00000001
00000100
,
00000100
00100000
00100000
01000000
,
00000010
00000100
10100000
00000000
,
00000101
00000000
11000000
00000000
,
00000011
00000000
10000000
00010000
,
00000001
00001000
10000000
10000000
,
10000000
00000000
00000100
00100100
,
01000000
01000010
00100000
00000100
,
01000000
00000010
00000001
00010000
,
10000000
00001000
00000000
00000001
,
00000001
00000000
00100000
01000000
,
00000100
00000010
00110000
00000000
,
00010100
00000000
10000000
00010000
,
00000001
00001000
10000000
10000000
,
10000000
00000000
00000100
00100100
,
01000000
01000010
00100000
00000100
,
01000000
00000010
00000001
00010000
,
10000000
00001000
00000000
00000001
,
00000001
00000000
00100000
01000000
,
00000100
00000010
00110000
00000000
,
00010100
00000000
01100000
01100000
,
00010000
00010000
00000110
00000110
,
00010000
00010000
00100000
00000010
,
01000000
00000100
00100000
00100000
,
00000010
00000010
00100100
00100100
,
10000000
10000000
01000010
01000010
,
00000001
00000001
00000100
01000000
,
00000010
00100000
00000100
00000100
,
01000000
01000000
00011000
00000000
;
