#TITLE:你是我的玫瑰花;
#SUBTITLE:You Are My Rose;
#ARTIST:龐龍 (Pang Long);
#TITLETRANSLIT:nǐ shì wǒ de méiguī huā;
#SUBTITLETRANSLIT:;
#ARTISTTRANSLIT:Pánglóng;
#CREDIT:locuuraa [from 06.mp];
#BANNER:You Are My Rose.png;
#BACKGROUND:You Are My Rose.png;
#LYRICSPATH:;
#CDTITLE:../CDTitles/3DDX.png;
#MUSIC:You Are My Rose.mp3;
#OFFSET:-0.027;
#SAMPLESTART:36.000;
#SAMPLELENGTH:10.000;
#DISPLAYBPM:103.0;
#BGCHANGES:;
#NOTEDATA:;
#STEPSTYPE:ds3ddx-single;
#DESCRIPTION:Pretty;
#DIFFICULTY:Easy;
#METER:4;
#RADARVALUES:;
#BPMS:0.000=102.945;
#STOPS:0.000=0.000;
#DELAYS:;
#NOTES:
00000000
00000000
00000000
00000100
,
00100000
00000100
00100000
00000100
,
00100000
00000000
00000000
01000100
,
00100000
00000100
01000000
00000010
,
00000000
01000000
00000000
01000010
,
00000000
00000010
00000000
01000000
,
00000000
00000010
00000000
00100000
,
00100000
01000000
01000000
00000100
,
00100000
00000100
00000000
10000101
,
00000000
10100001
00000000
00000101
,
00000000
10100000
00000000
00000100
,
00000000
00000000
00100000
00000100
00100000
00000000
00000100
00000000
,
00000000
00100000
00000000
00010100
,
00000000
00110000
00000000
00000101
,
00000000
10100000
00000000
00000010
,
00000000
00000000
01000000
00000000
00000000
00000000
00000010
01000000
,
00000010
01000000
00000010
00000000
00000000
00000000
10100001
00000000
,
00000000
00010100
00000000
01000000
,
00000010
01000010
00000000
10100001
,
00000000
00010100
00000000
00100000
,
00000100
01000000
00000010
00000000
,
00100100
00000000
01000000
00000000
00000010
00000000
01000000
00000010
,
01000000
00000000
00000000
01000010
,
01000000
00000010
00000000
00100100
,
00000100
00100000
00000000
00000010
,
00000100
00100000
01000000
00000010
,
00000000
01000000
00000000
10000101
,
00000000
00110000
00000000
00000100
,
00100000
00100100
00000000
10000101
,
00000000
00110000
00000000
00000010
,
01000000
00000010
00000010
00000000
,
00000000
00000000
00000000
00100000
,
00000100
00100000
00000100
00000000
,
00000000
00000000
00000000
00000010
,
01000000
00000010
01000000
00000010
,
00000000
01000000
00000000
00000100
,
00000010
00000000
01000000
00000010
01000000
00000000
00000100
00000000
,
00000000
00100000
00000000
00000100
,
01000000
00000010
00100000
01000010
;
#NOTEDATA:;
#STEPSTYPE:ds3ddx-single;
#DESCRIPTION:Power;
#DIFFICULTY:Medium;
#METER:5;
#RADARVALUES:;
#BPMS:0.000=102.945;
#STOPS:0.000=0.000;
#DELAYS:;
#NOTES:
00000000
00000000
00000000
10000101
,
10100001
00000000
00000100
00100000
00000100
00000001
00000100
10000000
,
00100000
00000000
01000000
00000100
00100010
00000000
11000100
00000000
,
00100001
00000000
00000100
01000000
01000100
00000000
00000010
00000000
,
00000000
00000000
01000000
00000000
00000000
00000000
01000010
00000010
,
01000000
00000010
01000000
00000010
,
01000000
00000000
01000000
00000010
01000000
00000000
00010100
01000000
,
00000100
00000010
00000010
00010100
,
00100000
00000000
00100000
00000100
00100000
00000000
10000101
00000000
,
00000100
00000000
00000010
00000100
00000100
00000000
00000010
00000100
,
00100000
10000101
00000000
00100000
,
00000000
00000000
00100000
00000100
00100000
00000000
00000010
00000000
,
01000000
00000000
00000010
00000010
01000000
01000000
00010100
00000000
,
00100000
00000000
00000100
00100000
00000100
00000000
00100000
00000000
,
00000010
00000000
00000011
00000100
00000011
00000000
00100000
00000000
,
00000010
00000000
01000000
00000100
00100000
00000000
00100000
00000100
,
00100000
00000100
00100000
00010000
00100100
00000000
10100001
00000000
,
00000000
00000100
01000000
00000000
00000000
00000000
00110001
00000000
,
10010100
00000000
00000100
00100000
00000000
00000000
01000010
00000000
,
00000000
01000000
00000010
00000000
00000000
00000000
00000100
00000000
,
00000010
00000000
00000100
00000010
00000100
00000000
01100000
00000000
,
00000010
00000000
01000000
00000000
00000010
00000000
01000000
00000010
,
01000000
00000000
00010000
11000001
,
01000000
00000010
01000000
00000000
00000010
00000000
00000010
01000000
,
00000010
01000000
00000010
11000001
,
00000100
00100000
00000100
01000000
00000010
00000000
01000000
01000000
,
00000100
00000010
01000000
00000010
00100000
00100000
10000011
00000000
,
00000000
00110000
00010100
01000000
,
00000010
00000000
01000000
01000000
01000000
00000000
10000010
00000000
,
00011010
00000011
00010010
00100000
,
01000000
00000000
00100000
01000000
00100000
00000000
01000001
00000000
,
00000000
00000000
10000100
00000000
00000000
00000000
01000000
00000010
,
01000000
00000100
00100000
00000100
00100000
00000000
10000010
00000000
,
00000000
00000000
00100001
00000000
00000000
00000000
00000010
01000000
,
00000010
01000000
00000010
00100000
00000010
00000000
10000011
00000000
,
00000000
00010000
00000000
00100000
,
00000010
00000000
00100000
00100000
00100000
00000000
01000000
00000000
,
00000010
00000000
00000011
00000010
00000011
00000000
00000100
00000100
,
01000000
00000010
00100000
00100000
00000100
00000000
01010010
00000000
;
#NOTEDATA:;
#STEPSTYPE:ds3ddx-double;
#DESCRIPTION:Dual;
#DIFFICULTY:Medium;
#METER:5;
#RADARVALUES:;
#BPMS:0.000=102.945;
#STOPS:0.000=0.000;
#DELAYS:;
#NOTES:
0000000000000000
0000000000000000
0000000000000000
0000000010000101
,
0000000010100001
0000000000000000
0000000000000100
0000000000100000
0000000000000100
0000000000000001
0000000000000100
0000000010000000
,
0000000000100000
0000000000000000
0000000001000000
0000000000000100
0000000000100010
0000000000000000
0000000011000100
0000000000000000
,
0000000000100001
0000000000000000
0000000000000100
0000000001000000
0000000001000100
0000000000000000
0000000000100000
0000000000000000
,
0000000000000000
0000000000000000
0000010000000000
0000000000000000
0000000000000000
0000000000000000
0000001001000000
0000000001000000
,
0000001000000000
0000000001000000
0000001000000000
0000000001000000
,
0000001000000000
0000000000000000
0000001000000000
0000000001000000
0000001000000000
0000000000000000
0000000000110000
0000001000000000
,
0000000000100000
0000000001000000
0000000001000000
0000000000110000
,
0000010000000000
0000000000000000
0000010000000000
0000001000000000
0100000000000000
0000000000000000
1000010100000000
0000000000000000
,
0000010000000000
0000000000000000
0000001000000000
0000010000000000
0000010000000000
0000000000000000
0000001000000000
0000010000000000
,
0010000000000000
1000010100000000
0000000000000000
0000010000000000
,
0000000000000000
0000000000000000
0000010000000000
0000000000100000
0000010000000000
0000000000000000
0000000001000000
0000000000000000
,
0000001000000000
0000000000000000
0000000001000000
0000000001000000
0000001000000000
0000001000000000
0000000000110000
0000000000000000
,
0000010000000000
0000000000000000
0000000000100000
0000010000000000
0000000000100000
0000000000000000
0000010000000000
0000000000000000
,
0000000001000000
0000000000000000
0000000001000000
0000000000100000
0000000001000000
0000000000000000
0000000000100000
0000000000000000
,
0000000001000000
0000000000000000
0000000001000000
0000000000000100
0000000000100000
0000000000000000
0000000000100000
0000000000000100
,
0000000000100000
0000000000000100
0000000000100000
0000000000010000
0000000000100100
0000000000000000
0000000010100001
0000000000000000
,
0000000000000000
0000000000000100
0000000001000000
0000000000000000
0000000000000000
0000000000000000
0000000000110001
0000000000000000
,
0000000010010100
0000000000000000
0000000000000100
0000000000100000
0000000000000000
0000000000000000
0000000001000010
0000000000000000
,
0000000000000000
0000000000000010
0000000001000000
0000000000000000
0000000000000000
0000000000000000
0000000000100000
0000000000000000
,
0000001000000000
0000000000000000
0010000000000000
0100000000000000
0010000000000000
0000000000000000
0000011000000000
0000000000000000
,
0000000001000000
0000000000000000
0100000000000000
0000000000000000
0000001000000000
0000000000000000
0100000000000000
0000001000000000
,
0000010000000000
0000000000000000
0001000000100000
0000010000010000
,
0000000000100000
0000010000000000
0000000000100000
0000000000000000
0000001000000000
0000000000000000
0000000001000000
0000001000000000
,
0000000001000000
0000001000000000
0000000001000000
0000010000010000
,
0000000001000000
0000001000000000
0000000000100000
0000000001000000
0000000000000010
0000000000000000
0000000001000000
0000000001000000
,
0000000000000100
0000000000000010
0000000000100000
0000000000000100
0000000000100000
0000000000000000
0000000010000011
0000000000000000
,
0000000000000000
0000000000110000
0000000000010100
0000000001000000
,
0000000000000010
0000000000000000
0000000001000000
0000000001000000
0000000001000000
0000000000000000
0000000010000010
0000000000000000
,
0000000000011010
0000000000000011
0000000000010010
0000000000100000
,
0000001000000000
0000000000000000
0010000000000000
0100000000000000
0010000000000000
0000000000000000
0100000100000000
0000000000000000
,
0000000000000000
0000000000000000
0001000000100000
0000000000000000
0000000000000000
0000000000000000
0000001000000000
0000000001000000
,
0000001000000000
0000000000100000
0000010000000000
0000000000100000
0000010000000000
0000000000000000
0001000000100000
0000000000000000
,
0000000000000000
0000000000000000
0000001000010000
0000000000000000
0000000000000000
0000000000000000
0000000001000000
0000001000000000
,
0000000001000000
0000001000000000
0000000001000000
0000010000000000
0000000001000000
0000000000000000
0001010000010000
0000000000000000
,
0000000000000000
0000000000010000
0000000000000000
0000010000000000
,
0000000001000000
0000000000000000
0000010000000000
0000010000000000
0000010000000000
0000000000000000
0000010000000000
0000000000000000
,
0000000000100000
0000000000000000
0000000000110000
0000000000100000
0000000000110000
0000000000000000
0000010000000000
0000010000000000
,
0000000001000000
0000001000000000
0000000000100000
0000000000100000
0000010000000000
0000000000000000
0000001001000000
0000000000000000
;
