#VERSION:0.83;
#TITLE:Witch Doctor;
#SUBTITLE:;
#ARTIST:MoodBlast;
#TITLETRANSLIT:;
#SUBTITLETRANSLIT:;
#ARTISTTRANSLIT:;
#GENRE:;
#ORIGIN:;
#TAGS:;
#CREDIT:locuuraa [from video];
#BANNER:;
#BACKGROUND:;
#PREVIEWVID:;
#JACKET:;
#CDIMAGE:;
#DISCIMAGE:;
#LYRICSPATH:;
#CDTITLE:;
#MUSIC:Witch Doctor.mp3;
#OFFSET:-0.652000;
#SAMPLESTART:43.659966;
#SAMPLELENGTH:13.400002;
#SELECTABLE:YES;
#DISPLAYBPM:135.000000;
#BPMS:0.000000=60.000000
;
#STOPS:;
#DELAYS:;
#WARPS:;
#TIMESIGNATURES:0.000000=4=4
;
#TICKCOUNTS:0.000000=4
;
#COMBOS:0.000000=1
;
#SPEEDS:0.000000=1.000000=0.000000=0
;
#SCROLLS:0.000000=1.000000
;
#FAKES:;
#LABELS:0.000000=Song Start
;
#BGCHANGES:;
#KEYSOUNDS:;
#ATTACKS:
;

//---------------ds3ddx-single - Pretty----------------
#NOTEDATA:;
#CHARTNAME:;
#CHARTHASH:2147483647;
#STEPSTYPE:ds3ddx-single;
#BANNER:;
#DESCRIPTION:Pretty;
#CHARTSTYLE:;
#DIFFICULTY:Easy;
#METER:3;
#METERF:0.000000;
#LASTSECONDHINT:74.365891;
#RADARVALUES:0.208603,0.277902,0.197327,0.000000,0.000000,111.000000,96.000000,15.000000,0.000000,0.000000,0.000000,0.000000,0.000000,0.000000,0.208603,0.277902,0.197327,0.000000,0.000000,111.000000,96.000000,15.000000,0.000000,0.000000,0.000000,0.000000,0.000000,0.000000;
#CREDIT:;
#OFFSET:0.468000;
#BPMS:0.000000=135.500107
;
#STOPS:;
#DELAYS:;
#WARPS:;
#TIMESIGNATURES:0.000000=4=4
;
#TICKCOUNTS:0.000000=4
;
#COMBOS:0.000000=1
;
#SPEEDS:0.000000=1.000000=0.000000=0
;
#SCROLLS:0.000000=1.000000
;
#FAKES:;
#LABELS:0.000000=Song Start
;
#DISPLAYBPM:135.000000;
#NOTES:
// measure 0
00000000
00000000
00000000
00000000
,  // measure 1
00000000
00000000
00000000
00000000
,  // measure 2
00000000
00000000
00000000
00000000
,  // measure 3
00000000
00000000
00000000
00000000
,  // measure 4
00000000
00000000
00000000
00000000
,  // measure 5
00100000
00000000
00100000
00000000
,  // measure 6
00000010
01000000
00000010
00000000
,  // measure 7
01000000
00000000
01000000
00000000
,  // measure 8
00000100
00100000
00000100
00000000
,  // measure 9
00100000
00000100
01000000
00000010
,  // measure 10
00100000
00000000
00100000
00000000
,  // measure 11
00000100
00000000
00000100
00000000
,  // measure 12
00100000
00000000
00000100
00000000
,  // measure 13
01000000
00000010
11000000
00000000
,  // measure 14
00000100
00000000
00000100
00000000
,  // measure 15
01000000
00000010
11000000
00000000
,  // measure 16
00000100
00000000
00000100
00000000
,  // measure 17
01000000
00000010
11000000
00000000
,  // measure 18
00000000
00010000
00000000
00000000
,  // measure 19
01000000
00000000
00000010
00000000
,  // measure 20
01000000
00000000
00000010
00000000
,  // measure 21
00100000
00000000
00000100
00000000
,  // measure 22
00100000
00000000
00000100
00000000
,  // measure 23
01000000
00000000
01000000
00000000
,  // measure 24
00000010
01000000
00000011
00000000
,  // measure 25
00100000
00000000
00100000
00000000
,  // measure 26
00000010
01000000
00000011
00000000
,  // measure 27
00100000
00000000
00100000
00000000
,  // measure 28
00000010
01000000
00000010
00000000
,  // measure 29
01000000
00000000
01000000
00000000
,  // measure 30
00000100
00100000
00000100
01000000
,  // measure 31
01000000
00000010
00000010
00100000
,  // measure 32
00000100
00000000
01000000
00000010
,  // measure 33
11000000
00000000
00000100
00000101
,  // measure 34
00000000
00100000
10100000
00000000
,  // measure 35
00000010
01000000
00000010
00000000
,  // measure 36
11000000
00000000
00000011
00000000
,  // measure 37
00110000
00000000
00010100
00000000
,  // measure 38
01000000
01000000
01000000
00000000
,  // measure 39
00010100
00000000
00110000
00000000
,  // measure 40
00000010
00000010
00000010
00000000
,  // measure 41
00100000
00000100
01000000
00000010
,  // measure 42
01000000
00000011
00000000
00000000
;

//---------------ds3ddx-single - Power----------------
#NOTEDATA:;
#CHARTNAME:;
#CHARTHASH:2147483647;
#STEPSTYPE:ds3ddx-single;
#BANNER:;
#DESCRIPTION:Power;
#CHARTSTYLE:;
#DIFFICULTY:Medium;
#METER:3;
#METERF:0.000000;
#LASTSECONDHINT:74.365891;
#RADARVALUES:0.317602,0.416853,0.276258,0.000000,0.000000,169.000000,142.000000,21.000000,0.000000,0.000000,3.000000,0.000000,0.000000,0.000000,0.317602,0.416853,0.276258,0.000000,0.000000,169.000000,142.000000,21.000000,0.000000,0.000000,3.000000,0.000000,0.000000,0.000000;
#CREDIT:;
#OFFSET:0.468000;
#BPMS:0.000000=135.500107
;
#STOPS:;
#DELAYS:;
#WARPS:;
#TIMESIGNATURES:0.000000=4=4
;
#TICKCOUNTS:0.000000=4
;
#COMBOS:0.000000=1
;
#SPEEDS:0.000000=1.000000=0.000000=0
;
#SCROLLS:0.000000=1.000000
;
#FAKES:;
#LABELS:0.000000=Song Start
;
#DISPLAYBPM:135.000000;
#NOTES:
00000000
00000000
00000000
00000000
,
00000000
00000000
00000000
00000000
,
00000000
00000000
00000000
00000000
,
00000000
00000000
00000000
00000000
,
00000000
00000000
00000000
00000000
,
00110000
00000000
00000100
00000000
01000000
00000010
01000000
00000000
,
00000010
01000000
00000010
00000010
,
11000000
00000000
00000011
00000000
00100000
00000100
00100000
00000000
,
00000010
00000010
00110000
00100000
,
00000100
00000000
01000000
00000010
01000000
00000000
00000100
00000000
,
00100000
00000000
00000100
00000000
00000100
00000100
01000000
00000000
,
00000010
00000000
01000000
00000000
01000000
01000000
00000100
00000000
,
00100000
00000000
00000100
00000000
00000100
00000100
01000000
00000000
,
00000010
00000000
01000000
00000010
01000000
00000000
00000000
00000000
,
00000100
00000000
00100000
00000000
01000000
01000000
11000000
00000000
,
00100000
00000000
00000100
00000000
00000010
01000000
00000011
00000000
,
00100000
00000000
01000000
00000000
00000010
00000010
00000010
00000000
,
00100000
00000100
00100100
00000000
,
00000000
00010000
00000000
00000000
,
01000000
00000000
00000010
00000000
,
01000000
00000010
01000000
00000000
,
00100000
00000000
00000100
00000000
,
00100000
00000100
00100000
00000000
,
01000000
00000000
01000000
00000000
,
00000100
00100000
00000000
10100101
,
00000000
00000000
00000010
00000000
01000000
00000010
00000010
00000000
,
01010000
00000000
00010010
00000000
01000000
01000000
00000010
00000000
,
00000010
00000000
00100000
00000000
00000010
01000000
01000000
00000000
,
00000010
00000010
01000000
00000010
,
00010100
00000000
00110000
00000000
00000010
00000010
01000000
00000000
,
11000000
00000011
00000000
00000000
00100000
00100000
00000100
00000000
,
00000100
00000000
00100000
00000000
00000010
00000010
01000000
00000000
,
01000000
00000010
10000001
00000000
,
00100000
00100000
00000100
00000100
,
01000000
00000010
00000010
01000000
,
00000100
00000100
00100000
00100000
,
00000010
01000000
11000011
00000000
,
11000000
00000000
00000011
00000000
,
01000000
00000010
01000000
00000000
,
00010100
00000000
00110000
00000000
,
00000100
00100000
00000100
00000000
,
01000000
00000000
00000010
01000000
,
00000010
11000011
00000000
00000000
;
