#TITLE:뭡니까;
#SUBTITLE:What is it;
#ARTIST:심태윤 (Shim Tae-yoon);
#TITLETRANSLIT:;
#SUBTITLETRANSLIT:;
#ARTISTTRANSLIT:;
#CREDIT:locuuraa [from 57.mp];
#BANNER:What is it.png;
#BACKGROUND:What is it.png;
#LYRICSPATH:;
#CDTITLE:../CDTitles/3DDX.png;
#MUSIC:What is it.mp3;
#OFFSET:0.122;
#SAMPLESTART:17.500;
#SAMPLELENGTH:10.000;
#DISPLAYBPM:110.0;
#BGCHANGES:;
#NOTEDATA:;
#STEPSTYPE:ds3ddx-single;
#DESCRIPTION:Pretty;
#DIFFICULTY:Easy;
#METER:4;
#RADARVALUES:;
#BPMS:0.000=110.000;
#STOPS:0.000=0.000;
#DELAYS:;
#NOTES:
00000000
00000000
00000000
00000000
,
00000000
00000000
00000000
00000000
,
00000000
00000000
00000000
00000000
,
00000000
00000000
00000000
00000000
,
00000000
10000001
00000000
00000000
,
00000000
10100000
00000000
00000101
,
00000000
00000100
00000100
01000000
,
00000000
00000100
00000100
01000000
,
00000000
00000010
00000000
01000000
,
00000000
00000101
00000000
10100000
,
00000000
00000100
00000100
00100000
,
00100000
00000000
00000100
00100000
00000100
00000000
01000000
00000010
,
01000000
00000011
00000000
11000000
,
00000000
00000011
00000000
11000000
,
00000000
00000100
00000100
00000010
,
00000010
00100000
00100000
01000000
,
01000000
00000100
00000100
01000000
,
00000000
00000100
00000100
01000000
,
00000000
00000010
00000000
01000000
,
00000000
00010100
00000000
00110000
,
00000000
00100000
00100000
00000010
,
00000000
00100000
00100000
00000010
,
00000000
01000000
00000000
00000010
,
00000000
00110000
00000000
00010100
,
00000000
00000000
00100000
00000100
00100000
00000000
00000100
00000000
,
00000000
00100000
00100000
00000100
,
00000100
00000000
00000000
00000000
00100000
00000000
00000100
00100000
,
00000100
00000000
00000000
00000000
01000000
00000000
00000010
01000000
,
00000010
00100000
00000000
00100000
,
00000000
00000100
00000000
00000100
,
00000000
00100000
00000100
00100000
,
00000100
01000000
00000010
01000000
,
00000010
01000010
00000000
00000000
,
00000000
00110000
00000000
00010100
,
00000000
01000000
00000000
00000010
,
00000000
00100000
01000000
00000100
,
00000010
00100000
01000000
00000100
,
00000010
00110000
00000000
00010100
,
00000000
01000000
00000000
00000010
,
00000000
00100000
00000000
00100000
,
00000000
00000100
00000000
00000100
,
00000000
10000001
00000000
00000000
,
00000000
00000101
00000000
10100000
,
00000000
00100000
00100000
00000010
,
00000000
00000100
00000100
01000000
,
00100010
00000000
00000000
00000000
;
#NOTEDATA:;
#STEPSTYPE:ds3ddx-single;
#DESCRIPTION:Power;
#DIFFICULTY:Medium;
#METER:5;
#RADARVALUES:;
#BPMS:0.000=110.000;
#STOPS:0.000=0.000;
#DELAYS:;
#NOTES:
00000000
00000000
00000000
00000000
,
00000000
00000000
00000000
00000000
,
00000000
00000000
00000000
00000000
,
00000000
00000000
00000000
00000000
,
00000000
00000000
11000001
00000000
00000000
00000000
00000010
01000000
,
00000010
00000100
00100000
01000000
,
01000010
00000000
00010100
01000000
00000100
00000000
11000000
00000000
,
01000000
00000000
00010100
01000000
00000100
00000000
00000011
00000000
,
00000010
00000000
01000000
00000000
00000010
01000000
00000010
00000000
,
00100000
00000000
00000100
00000000
00010000
00010000
00000100
00100000
,
00000100
00000000
01000000
00100000
01000000
00000000
00100000
01000000
,
00000010
00000000
00000100
00000010
01000000
00000000
00000010
01000000
,
01000010
00000000
00000100
00000000
00100000
00000000
00000100
00100000
,
00010000
00000000
00100000
01000000
00010100
00000010
00100000
01000000
,
00010100
00000000
00100000
10010000
00100000
00000000
00000100
00010001
,
00000100
00000000
00000100
01000000
00000010
00000000
00100000
00000010
,
01000000
00000000
00010100
01000000
00000100
00000000
11000000
00000000
,
01000000
00000000
00010100
01000000
00000100
00000000
00000011
00000000
,
00000000
00010000
00000000
00000000
00100000
00000000
00000100
00100000
,
00000100
00000000
00100000
01000000
00000010
00100000
00000100
01000000
,
00000010
00000000
00110000
00000010
00100000
00000000
00000011
00000000
,
00000010
00000000
00110000
00000010
00100000
00000000
11000000
00000000
,
00000000
00010000
00000000
00000000
00000100
00000000
00100000
00000100
,
00100000
00000000
00000100
00000010
01000000
00000100
00100000
00000010
,
01000000
00000000
00000010
01000000
00000010
00000000
00110000
00000000
,
00100000
00000000
00010100
00100000
01000000
00000000
00110000
00000100
,
00000010
00000000
00000100
00010000
00000100
00000000
00100000
00000100
,
00100000
00000000
10000101
00000000
00100000
00000000
00000010
01000000
,
00000010
00100000
00100000
00100000
,
00000000
00000100
00000100
00000100
,
00000000
00000000
10100001
00000100
00100000
00000000
00100000
00000000
,
00000100
00000000
00100000
00000010
01000000
00000100
00100000
00000010
,
00100000
01000010
00000000
00000000
,
00000000
00110000
10000000
00010100
,
00000001
00100000
00000100
01000000
,
00000010
00110000
01000000
00010100
,
00000010
00100000
01000000
00000100
,
00000010
00110000
10000000
00010100
,
00000001
00100000
00000100
01000000
,
00000010
00000010
00000100
00100000
,
01000000
01000000
00100000
00000100
,
00000010
00000000
11000001
00000000
00000000
00000000
00000010
01000000
,
00000010
00000100
00100000
01000000
,
01000010
00000000
00110000
00000010
00100000
00000000
00000100
00000000
,
00000000
00000000
00010100
01000000
00000100
00000000
00100000
00000000
,
01000100
00000000
00000000
00000000
;
#NOTEDATA:;
#STEPSTYPE:ds3ddx-double;
#DESCRIPTION:Dual;
#DIFFICULTY:Medium;
#METER:5;
#RADARVALUES:;
#BPMS:0.000=110.000;
#STOPS:0.000=0.000;
#DELAYS:;
#NOTES:
0000000000000000
0000000000000000
0000000000000000
0000000000000000
,
0000000000000000
0000000000000000
0000000000000000
0000000000000000
,
0000000000000000
0000000000000000
0000000000000000
0000000000000000
,
0000000000000000
0000000000000000
0000000000000000
0000000000000000
,
0000000000000000
0000000000000000
0000001000000000
0000000000000000
0000000000000000
0000000000000000
0000000001000000
0000001000000000
,
0000000001000000
0000000000100000
0000010000000000
0000000001000000
,
0000001001000000
0000000000000000
0000000000100000
0000001000000000
0000000000100000
0000000000000000
0000001000000000
0000000000000000
,
0000001000000000
0000000000000000
0000000000100000
0000001000000000
0000000000100000
0000000000000000
0000000001000000
0000000000000000
,
0000000001000000
0000000000000000
0000001000000000
0000000000000000
0000000001000000
0000000000000000
0000010000000000
0000000000100000
,
0000010000000000
0000000000000000
0000000000100000
0000000000000000
0000010000000000
0000010000000000
0000000000100000
0000000001000000
,
0000000000000010
0000000000000000
0000000001000000
0000000000100000
0000000001000000
0000000000000000
0000000000100000
0000000001000000
,
0000000000000010
0000000000000000
0000000000000100
0000000000000010
0000000001000000
0000000000000000
0000000000000011
0000000011000000
,
0000000001000010
0000000000000000
0000000000000100
0000000000000000
0000000000100000
0000000000000000
0000000000000100
0000000000100000
,
0000000000010000
0000000000000000
0000000000000100
0000000000000010
0000000000110000
0000000001000000
0000010000000000
0000001000000000
,
0001010000000000
0000000000000000
0010000000000000
1001000000000000
0010000000000000
0000000000000000
0000010000000000
0001000100000000
,
0000010000000000
0000000000000000
0000010000000000
0100000000000000
0000001000000000
0000000000000000
0010000000000000
0000001000000000
,
0100000000000000
0000000000000000
0001010000000000
0100000000000000
0000010000000000
0000000000000000
1100000000000000
0000000000000000
,
0100000000000000
0000000000000000
0001010000000000
0100000000000000
0000010000000000
0000000000000000
0000001100000000
0000000000000000
,
0000000000000000
0001000000000000
0000000000000000
0000000000000000
0000010000000000
0000000000000000
0010000000000000
0000010000000000
,
0010000000000000
0000000000000000
0000010000000000
0000001000000000
0000000001000000
0000010000000000
0000000000100000
0000000001000000
,
0000000000000010
0000000000000000
0000000000110000
0000000000000010
0000000000100000
0000000000000000
0000000000000011
0000000000000000
,
0000000000000010
0000000000000000
0000000000110000
0000000000000010
0000000000100000
0000000000000000
0000000011000000
0000000000000000
,
0000000000000000
0000000000010000
0000000000000000
0000000000000000
0000000000100000
0000000000000000
0000000000000100
0000000000100000
,
0000000000000100
0000000000000000
0000000000100000
0000000001000000
0000001000000000
0000010000000000
0010000000000000
0000001000000000
,
0100000000000000
0000000000000000
0000001000000000
0100000000000000
0000001000000000
0000000000000000
0011000000000000
0000000000000000
,
0010000000000000
0000000000000000
0001010000000000
0010000000000000
0100000000000000
0000000000000000
0011000000000000
0000010000000000
,
0000001000000000
0000000000000000
0000010000000000
0001000000000000
0000010000000000
0000000000000000
0000001000000000
0000000001000000
,
0000001000000000
0000000000000000
0001000000110000
0000000000000000
0000010000000000
0000000000000000
0000000001000000
0000001000000000
,
0000000001000000
0000010000000000
0000010000000000
0000010000000000
,
0000000000000000
0000000000100000
0000000000100000
0000000000100000
,
0000000000000000
0000000000000000
0000000010100001
0000000000000100
0000000000100000
0000000000000000
0000000000100000
0000000000000000
,
0000000000000100
0000000000000000
0000000000100000
0000000000000010
0000000001000000
0000000000000100
0000000000100000
0000000000000010
,
0000000000100000
0000000001000010
0000000000000000
0000000000000000
,
0000000000000000
0000000000010100
0000000000000001
0000000000110000
,
0000000010000000
0000000000000100
0000000000100000
0000000000000010
,
0000000001000000
0000000000010100
0000000000000010
0000000000110000
,
0000000001000000
0000001000000000
0000010000000000
0010000000000000
,
0000010000000000
0001010000000000
0000000100000000
0011000000000000
,
1000000000000000
0000010000000000
0010000000000000
0000001000000000
,
0100000000000000
0100000000000000
0010000000000000
0000010000000000
,
0000001000000000
0000001000000000
0000010000000000
0010000000000000
,
0100000000000000
0000000000000000
0000000001000000
0000000000000000
0000000000000000
0000000000000000
0000000001000000
0000001000000000
,
0000000001000000
0000010000000000
0000000000100000
0000000001000000
,
0000001001000000
0000000000000000
0000010000000000
0000000001000000
0000010000000000
0000000000000000
0000000000100000
0000000000000000
,
0000000000000000
0000000000000000
0000000000100000
0000001000000000
0000000000100000
0000000000000000
0000010000000000
0000000000000000
,
0000001000100000
0000000000000000
0000000000000000
0000000000000000
;
