#TITLE:We are the future;
#SUBTITLE:;
#ARTIST:HOT;
#TITLETRANSLIT:;
#SUBTITLETRANSLIT:;
#ARTISTTRANSLIT:;
#CREDIT:locuuraa [from 71.mp];
#BANNER:We are the future.png;
#BACKGROUND:We are the future.png;
#LYRICSPATH:;
#CDTITLE:../CDTitles/3DDX.png;
#MUSIC:We are the future.mp3;
#OFFSET:-0.084;
#SAMPLESTART:25.000;
#SAMPLELENGTH:10.000;
#DISPLAYBPM:130.0;
#BGCHANGES:;
#NOTEDATA:;
#STEPSTYPE:ds3ddx-single;
#DESCRIPTION:Pretty;
#DIFFICULTY:Easy;
#METER:5;
#RADARVALUES:;
#BPMS:0.000=129.988;
#STOPS:0.000=0.000;
#DELAYS:;
#NOTES:
00000000
00000000
00000000
00000000
,
00000000
00000000
00000000
00000000
,
00000000
00000000
00000000
00000000
,
00000000
00000000
00000000
00000000
,
00000000
00000000
00000000
00000000
,
00000000
00000100
00000000
00100000
,
00000000
01000000
00000000
00000010
,
00000000
00110000
00000000
01000100
,
00000000
00100010
00000000
01000100
,
00000000
00100010
00000000
00000100
,
00100000
00000100
00000100
11000000
,
00000000
00000011
00000000
01000000
,
00000010
01000000
01000000
00000101
,
00000000
10100000
00000000
00000110
,
00000000
01100000
00000000
00000010
,
00000100
00000000
00000010
00000100
00000010
00000000
11000000
00000000
,
00000000
00000011
00000000
01000000
,
00100000
00000000
00000100
00000100
00000100
00000000
00100000
00000000
,
00100000
00000100
00000010
00000100
,
00000100
00100000
01000000
00010000
,
00000000
00000100
00000000
00100000
,
00000100
00000010
01000000
00000101
,
00000000
10100000
00000000
00000100
,
00000010
00000100
00000000
00100000
,
01000000
00100000
00000000
00000100
,
00000010
00000000
00000100
00000010
00000100
00000000
11000000
00000000
,
00000000
00000011
00000000
01000000
,
00100000
01000000
00000000
00000010
,
00000100
00000010
00000000
01000000
,
00100000
00000000
01000000
00100000
01000000
00000000
10000010
00000000
,
00000000
10000010
00000000
00100001
,
00000000
00100001
00000000
00000100
,
01000000
00010100
00000000
00100000
,
00000010
00110000
00000000
00000100
,
00000010
00000000
01000000
00100000
01000000
00000000
00000100
00000000
,
00100000
00000000
00000100
00000100
00000100
00000000
00100000
00000000
,
01000000
00000000
00000010
00000100
00000010
00000000
00100000
00000000
,
00000100
00000000
00100000
00100000
00100000
00000000
00000011
00000000
,
00000000
11000000
00000000
00000010
,
00100000
00000100
00000000
00100000
,
00000100
01000000
00000000
00000010
,
00000100
01000000
00000010
00100000
,
00000100
01000000
00000100
00100000
,
00000100
00000010
00100000
00010100
,
00000000
00100000
00000000
01000100
,
00000000
00100010
00000000
01010100
;
#NOTEDATA:;
#STEPSTYPE:ds3ddx-single;
#DESCRIPTION:Power;
#DIFFICULTY:Medium;
#METER:5;
#RADARVALUES:;
#BPMS:0.000=129.988;
#STOPS:0.000=0.000;
#DELAYS:;
#NOTES:
00000000
00000000
00000000
00000000
,
00000000
00000000
00000000
00000000
,
00000000
00000000
00000000
00000000
,
00000000
00000000
00000000
00000000
,
00000000
00000000
00000000
00000000
,
00000000
00000010
01000000
01000000
,
00000010
01000100
00000100
00100000
,
00000100
00100010
00000000
00000100
,
00000100
00100000
00100000
00000010
,
01000000
00000000
00000000
00110000
,
10000101
00000000
00000100
00100000
00000100
00000000
01000000
00000000
,
00000010
00000000
00100000
00000100
00000010
00000000
10000110
00000000
,
01000000
00000000
00100000
01000000
00000010
00000000
00110000
00000000
,
00000100
00100000
00010000
00100100
,
00010000
00000000
00010000
00000000
00000000
00000000
00100000
00010000
,
00100000
00000000
01000100
01000100
01000100
00000000
00000100
00010000
,
00000100
00100100
00000000
00000100
,
00100000
00000000
00000100
00100000
00000100
00000000
10100000
00000000
,
00100000
00000000
00000100
01000000
00000010
00000000
00000101
00000000
,
00000100
00000000
00100000
00000010
01000000
00000000
00010000
00000000
,
00000000
00000100
00000000
00100000
,
00000100
00000000
00100000
00000010
01000000
00000000
00100001
00000000
,
00000000
00000000
10000100
00000000
00000000
00000000
00110000
00000001
,
01000000
00100000
00000100
10000100
,
00000000
00000000
00100001
00000000
00000000
00000000
00010100
10000000
,
00000010
00000100
00100000
00000101
,
00000010
00000000
01000000
00000100
01000000
00000000
10100000
00000000
,
01000000
00000000
00000010
00100000
00000010
00000000
00100001
00000000
,
00000000
10000100
00000000
00100001
,
01000000
00000000
00100000
00000100
00100000
00000000
10000100
00000000
,
00000000
00100001
00000000
10000100
,
00000010
00000000
00100000
00000100
00100000
00000000
00000100
00000000
,
00000000
00010000
00000000
00100000
,
00100000
00000000
00000100
00000000
00000100
00000000
00000100
01000000
,
00000010
00000010
01000000
00000010
01000000
00000000
00000100
01000000
,
00000100
00000100
00000000
00000010
00100000
00000000
00100000
00000010
,
00100000
00100000
00000000
01000000
00000100
00000000
00000100
00100000
,
00000100
10000000
00000001
00010000
00000001
00000000
00100000
00000000
,
00100000
00000000
00000011
00100000
00000100
00000000
00000100
00000000
,
00000100
00000000
11000000
00000100
00100000
00000000
00000001
00000000
,
01000010
00000000
10000000
00000000
01000010
00000000
00000100
01000000
,
00000010
00000001
10000000
00010000
,
00000100
00000000
01000000
00100000
00000100
00000000
00100000
00000000
,
00000100
00000000
00000010
00000100
00100000
00000000
00010100
00000000
,
00000000
00000000
00000000
00000100
,
00100000
00000010
01000000
10100101
;
#NOTEDATA:;
#STEPSTYPE:ds3ddx-double;
#DESCRIPTION:Dual;
#DIFFICULTY:Medium;
#METER:5;
#RADARVALUES:;
#BPMS:0.000=129.988;
#STOPS:0.000=0.000;
#DELAYS:;
#NOTES:
0000000000000000
0000000000000000
0000000000000000
0000000000000000
,
0000000000000000
0000000000000000
0000000000000000
0000000000000000
,
0000000000000000
0000000000000000
0000000000000000
0000000000000000
,
0000000000000000
0000000000000000
0000000000000000
0000000000000000
,
0000000000000000
0000000000000000
0000000000000000
0000000000000000
,
0000000000000000
0000000001000000
0000001000000000
0000001000000000
,
0000000001000000
0000001000100000
0000000000000100
0000000000100000
,
0000000000000100
0000000000100010
0000000000000000
0000000000000100
,
0000000000000100
0000000000100000
0000000000100000
0000000000000010
,
0000000001000000
0000000000000000
0000000000000000
0000000000110000
,
0000000010000101
0000000000000000
0000000000000100
0000000000100000
0000000000000100
0000000000000000
0000000001000000
0000000000000000
,
0000000000000010
0000000000000000
0000000000100000
0000000000000100
0000000000000010
0000000000000000
0000000010000110
0000000000000000
,
0000000001000000
0000000000000000
0000000000100000
0000010000000000
0000000000100000
0000000000000000
0001010000000000
0000000000000000
,
0000000000100000
0000010000000000
0000000000010000
0000010000100000
,
0001000000000000
0000000000000000
0000000000010000
0000000000000000
0000000000000000
0000000000000000
0000010000000000
0001000000000000
,
0000010000000000
0000000000000000
0000010001000000
0000010001000000
0000010001000000
0000000000000000
0000000000100000
0000000000010000
,
0000000000100000
0000010000100000
0000000000000000
0000001000000000
,
0100000000000000
0000000000000000
0000010000000000
0010000000000000
0000010000000000
0000000000000000
1010000000000000
0000000000000000
,
0010000000000000
0000000000000000
0000010000000000
0100000000000000
0000001000000000
0000000000000000
0000010100000000
0000000000000000
,
0000010000000000
0000000000000000
0010000000000000
0000001000000000
0100000000000000
0000000000000000
0001000000000000
0000000000000000
,
0000000000000000
0000001000000000
0000000000000000
0000010000000000
,
0000000000100000
0000000001000000
0000000000000010
0000000000100001
,
0000000000000000
0000000000000000
0000000010000100
0000000000000000
0000000000000000
0000000000000000
0000000000110000
0000000000000001
,
0000000001000000
0000001000000000
0000000001000000
0000000000100000
,
0000000000000000
0000010000000000
0000000000000000
0000000000110000
,
0000000001000000
0000000000000010
0000000001000000
0000000000000101
,
0000000001000000
0000000000000000
0000000000100000
0000001000000000
0000000000100000
0000000000000000
0001010000000000
0000000000000000
,
0000001000000000
0000000000000000
0100000000000000
0000010000000000
0100000000000000
0000000000000000
1000010000000000
0000000000000000
,
0000000000000000
0010000100000000
0000000000000000
1000010000000000
,
0000001000000000
0000000001000000
0000001000000000
0000010000000000
,
0000000000000000
0000000000100000
0000000000000000
0000010000000000
,
0000001000000000
0100000000000000
0000001000000000
0100000000000000
,
0000000000000000
0001000000000000
0000000000000000
0010000000000000
,
0010000000000000
0000000000000000
0000010000000000
0000000000000000
0000010000000000
0000000000000000
0010000000000000
0000001000000000
,
0100000000000000
0100000000000000
0000001000000000
0100000000000000
0000001000000000
0000000000000000
0010000000000000
0000001000000000
,
0000010000000000
0000010000000000
0000000000000000
0000000001000000
0000001000000000
0000000000000000
0000000000100000
0000001000000000
,
0000000000100000
0000000000100000
0000000000000000
0000001000000000
0000000001000000
0000000000000000
0000010000000000
0000000000100000
,
0000010000000000
0000000000010000
0001000000000000
0000000000010000
0001000000000000
0000000000000000
0000000000100000
0000000000000000
,
0000000000100000
0000000000000000
0000000000110000
0000000001000000
0000000000000010
0000000000000000
0000000000100000
0000000000000000
,
0000000000100000
0000000000000000
0000000000110000
0000000000000010
0000000001000000
0000000000000000
0000000000000001
0000000000000000
,
0000000001000010
0000000000000000
0000000010000000
0000000000000000
0000000001000010
0000000000000000
0000000000100000
0000000000000010
,
0000000001000000
0000000000000001
0000000010000000
0000000000010000
,
0000000000000100
0000000000000000
0000000001000000
0000000000100000
0000000000000100
0000000000000000
0000000000100000
0000000000000000
,
0000000000000100
0000000000000000
0000000000000010
0000000000000100
0000000000100000
0000000000000000
0000000000010100
0000000000000000
,
0000000000000000
0000000000000000
0000000000000000
0010000000000000
,
0000010000000000
0000001000000000
0000000001000000
0001010000110000
;
