#TITLE:무모한 사랑;
#SUBTITLE:Useless Love;
#ARTIST:젝스키스 (Sechs Kies);
#TITLETRANSLIT:;
#SUBTITLETRANSLIT:;
#ARTISTTRANSLIT:;
#CREDIT:locuuraa [from 31.mp];
#BANNER:Useless Love.png;
#BACKGROUND:Useless Love.png;
#LYRICSPATH:;
#CDTITLE:../CDTitles/3DDX.png;
#MUSIC:Useless Love.mp3;
#OFFSET:0.097;
#SAMPLESTART:44.000;
#SAMPLELENGTH:10.000;
#DISPLAYBPM:142.0;
#BGCHANGES:;
#NOTEDATA:;
#STEPSTYPE:ds3ddx-single;
#DESCRIPTION:Pretty;
#DIFFICULTY:Easy;
#METER:4;
#RADARVALUES:;
#BPMS:0.000=142.100;
#STOPS:0.000=0.000;
#DELAYS:;
#NOTES:
00000000
00000000
00000000
00000000
,
00000000
00000000
00000000
00000000
,
00000000
00000000
00000000
00000000
,
00000000
00000000
00000000
00000000
,
00000000
00000000
00000000
00000000
,
00000100
00100000
00000100
00100000
,
00000100
00100000
00000100
10000001
,
01000000
00000010
01000000
00000010
,
00100000
00100000
00100000
00010000
,
00000001
00100000
00000100
00100000
,
00000010
00000010
01000000
10000001
,
00000100
00000100
00100000
00100000
,
00000010
01000010
01000000
01000010
,
00010100
00100000
00000010
00000000
,
00110000
00000100
01000000
01000000
,
00000010
00000000
00000010
01000000
,
01000000
10000000
00000010
00000001
,
00100000
01000000
00000100
00000010
,
11000000
00000000
00000011
00000000
,
00100000
00000100
01000000
00000010
,
00110000
00000000
00000000
00000000
,
00000101
00000000
00000101
00000000
,
10100000
00000000
10100000
00000000
,
00000100
00100000
00010100
00010100
,
01000000
01000000
01000000
01000000
,
00000010
00000000
00000011
00000000
,
01000000
00000000
11000000
00000000
,
00000100
00000000
00100000
00000000
,
00000100
00100000
00000100
00100000
,
00000010
10000001
00000000
00000000
,
00000001
10000000
00000010
01000010
,
01000000
00000000
00000010
00000000
,
01000000
00000010
01000000
00000000
,
00000100
00100000
00000101
00000000
,
00100000
00000100
10100000
00000000
,
00000100
00000000
00100000
00000000
,
00000010
01000000
00000010
01000000
,
00000010
00010000
00000000
00000000
,
01000000
10000001
00000000
00000000
,
01000000
00000000
00000010
00000000
,
01000000
00000000
00000000
00000000
,
00000100
00100000
10000011
00000000
,
00100000
00000100
11000001
00000000
,
00000010
00000000
00000010
00000000
,
11000000
00000000
00000000
00000000
,
00000100
00100000
00000100
00100000
,
00000100
00100000
00000100
10000001
,
01000000
00000010
01000000
00000010
,
00100000
00100000
00100000
00010000
,
00000001
00000100
00100000
00100000
,
00000010
00000000
00000010
10000001
,
00100000
00000000
00100000
00000000
,
00000010
01000000
00000010
01000000
,
00010100
00000000
00000000
00000000
;
#NOTEDATA:;
#STEPSTYPE:ds3ddx-single;
#DESCRIPTION:Power;
#DIFFICULTY:Medium;
#METER:5;
#RADARVALUES:;
#BPMS:0.000=142.100;
#STOPS:0.000=0.000;
#DELAYS:;
#NOTES:
00000000
00000000
00000000
00000000
,
00000000
00000000
00000000
00000000
,
00000000
00000000
00000000
00000000
,
00000000
00000000
00000000
00000000
,
00000000
00000000
00000000
00000000
,
00100000
00000100
00100000
00000100
,
00100000
00000100
00010000
00100000
,
00000100
11000000
00000011
00110000
,
00000101
00000101
00000101
11000000
,
00010010
01000000
00010010
10100000
,
10000010
10000010
00100001
00001010
,
10100000
00000011
00100000
01000001
,
00000100
10100100
01000000
01000011
,
00110000
00000100
00000010
11000001
,
01000000
00100000
01000000
10000011
,
01000000
00000000
00000010
01000000
,
10000101
00000010
10100001
01000000
,
10000100
00000010
00100001
01000000
,
00100000
00000100
00000010
01000000
,
00010100
00110000
00000011
01000000
,
10000010
00010000
00000001
00000000
00000000
00000000
00000000
00000000
00000000
00000000
00000000
00000000
00000000
00000000
00000000
00000000
,
00000101
00000000
00000101
00000000
,
00000011
00000000
00000011
00000000
,
00010100
00110000
00000101
00010100
,
00010100
00010100
00010100
00100100
,
00000100
00000000
00000000
00000000
,
10000001
00000000
11000000
00000000
,
00000100
00000000
00100000
00000000
,
00000101
10100000
11010001
01000000
,
11000011
00010000
00000000
00000000
,
00000001
10000000
00000100
01000010
,
01000000
00000000
00000010
00000000
,
01000000
00000010
01000000
00000000
,
10000101
00000010
00100001
00000000
,
10100001
01000000
10000100
00000000
,
00110000
00000000
00010100
00000000
01000000
00000010
10100001
00000000
,
00010010
10000000
00000000
00000000
00000000
00000000
00000000
00000000
,
00010010
11000011
00000000
00000000
,
00000011
00000000
00100000
01000010
,
01000000
00000000
00000010
00000000
,
01000000
00000000
00000000
00000000
,
10000101
00000010
00100001
00000000
,
10100001
01000000
10000100
00000000
,
01010000
00000000
10000011
00000000
,
00010000
10000000
00000000
00000000
00000000
00000000
00000000
00000000
,
00100000
00000100
00100000
00000100
,
00100000
00000100
00010000
00100000
,
00000100
11000000
00000011
00110000
,
00000101
00000101
00000101
11000000
,
00010010
01000000
00010010
10100000
,
10000010
10000010
00100001
00001010
,
10100000
00000011
00100000
01000001
,
00000010
01000000
00000010
01000000
,
01100001
00000000
00000000
00000000
;
#NOTEDATA:;
#STEPSTYPE:ds3ddx-double;
#DESCRIPTION:Dual;
#DIFFICULTY:Medium;
#METER:5;
#RADARVALUES:;
#BPMS:0.000=142.100;
#STOPS:0.000=0.000;
#DELAYS:;
#NOTES:
0000000000000000
0000000000000000
0000000000000000
0000000000000000
,
0000000000000000
0000000000000000
0000000000000000
0000000000000000
,
0000000000000000
0000000000000000
0000000000000000
0000000000000000
,
0000000000000000
0000000000000000
0000000000000000
0000000000000000
,
0000000000000000
0000000000000000
0000000000000000
0000000000000000
,
0010000000000000
0000010000000000
0010000000000000
0000010000000000
,
0010000000000000
0000010000000000
0010000000000000
1000000100000000
,
0000010000000000
0000001000000000
0000000001000000
0000000000110000
,
0000000000000101
0000000000000101
0000000000000101
0000000011000000
,
0000000000010010
0000000001000000
0000000000010010
0000000001000000
,
0000000000100000
0000010000000000
0000001000000000
0000101000000000
,
1010000000000000
0000001100000000
0010000000000000
0100000100000000
,
0000010000000000
0000011000000000
0000000001000000
0000001001000000
,
0000000000100000
0000000001000000
0000000010000011
0000000000000010
,
0000000001000000
0000000000100000
0000000001000000
0000000010000011
,
0000000001000000
0000000000000000
0000000000100000
0000010000000000
,
0000001000000000
0000000000000000
0100000000000000
0000001000000000
,
0010000100000000
0100000000000000
1000010000000000
0000001000000000
,
0010000000000000
0000010000000000
0000001000000000
0000000001000000
,
0000010000000000
0000000000100000
0000001000000000
0000000001000000
,
0000000000110000
0000000000000001
0000000000000000
0000000000000000
0000000000000000
0000000000000000
0000000000000000
0000000000000000
,
0000000000000101
0000000000000000
0000000000000101
0000000000000000
,
0000000001000000
0000000000000000
0000000001000000
0000000000000000
,
0001010000000000
0011000000000000
0000010100000000
0001010000000000
,
0001010000000000
0001010000000000
0001010000000000
0010010000000000
,
0000010000000000
0000000000000000
0000000000000000
0000000000000000
,
1000000100000000
0000000000000000
0000001100000000
0000000000000000
,
0000000000100000
0000000000000000
0000000000000100
0000000000000000
,
0000000000000101
0000000010100000
0000000011010001
0000000001000000
,
0000000011000011
0000000000010000
0000000000000000
0000000000000000
,
0000000000000010
0000000001000000
0000000000100000
0000001001000000
,
0000001000000000
0000000000000000
0000000001000000
0000000000000000
,
0000001000000000
0000000001000000
0000001000000000
0000000000000000
,
1000010100000000
0010000000000000
1000001000000000
0000000000000000
,
1010000100000000
0000010000000000
0100000100000000
0000000000000000
,
0001010000000000
0011000000000000
0000001000000000
0000010000000000
,
0000000001000000
0001000000000000
0000000000000000
0000000000000000
,
0101000000000000
1100001100000000
0000000000000000
0000000000000000
,
0000001000000000
0000010000000000
0000000000100000
0000001001000000
,
0000001000000000
0000000000000000
0000000001000000
0000000000000000
,
0000001000000000
0000000000000000
0000000000000000
0000000000000000
,
1000010100000000
0000001000000000
0010000100000000
0000000000000000
,
1010000100000000
0100000000000000
1000010000000000
0000000000000000
,
0100000000000000
0000000000000000
0000001000000000
0000000000000000
,
0000000000010000
0000000000000001
0000000000000000
0000000000000000
0000000000000000
0000000000000000
0000000000000000
0000000000000000
,
0000000000100000
0000000000000100
0000000000100000
0000000000000100
,
0000000000100000
0000000000000100
0000000000010000
0000000000100000
,
0000000000000100
0000000011000000
0000000000000011
0000000000110000
,
0000000000000011
0000000000000011
0000000000000011
0000000011000000
,
0000000000100000
0000010000000000
0000000000100000
0000010000000000
,
1000001000000000
1000001000000000
0010000100000000
0000101000000000
,
1010000000000000
0000001100000000
0000010000000000
0000000000100000
,
0000000001000000
0000000000000010
0000000001000000
0000000000000010
,
0000000010100000
0000000000000000
0000000000000000
0000000000000000
;
