#TITLE:니가 있어야 할 곳;
#SUBTITLE:The place you belong;
#ARTIST:god;
#TITLETRANSLIT:;
#SUBTITLETRANSLIT:;
#ARTISTTRANSLIT:;
#CREDIT:locuuraa [from 70.mp];
#BANNER:The place you belong.png;
#BACKGROUND:The place you belong.png;
#LYRICSPATH:;
#CDTITLE:../CDTitles/3DDX.png;
#MUSIC:The place you belong.mp3;
#OFFSET:0.107;
#SAMPLESTART:26.000;
#SAMPLELENGTH:10.000;
#DISPLAYBPM:116.0;
#BGCHANGES:;
#NOTEDATA:;
#STEPSTYPE:ds3ddx-single;
#DESCRIPTION:Pretty;
#DIFFICULTY:Easy;
#METER:5;
#RADARVALUES:;
#BPMS:0.000=116.080;
#STOPS:0.000=0.000;
#DELAYS:;
#NOTES:
00000000
00000000
00000000
00000000
,
00000000
00000000
01000000
00000000
00000000
00000000
00100000
01000000
,
00100000
00000000
01000000
00000000
00000000
00000000
00100000
01000000
,
00100000
01000000
11000000
00000010
,
00000011
00100000
00100100
00000100
,
00100100
00000000
00000010
00000000
00000000
00000000
00000100
00000010
,
00000100
00000000
00000010
00000000
00000000
00000000
00000100
00000010
,
00000100
00000010
00000011
01000000
,
11000000
00000100
00100100
00100000
,
00100100
00000011
00000000
11000000
,
00000000
00000101
00000000
10100000
,
00000000
00000100
00100000
00000100
,
00000100
00100000
00000100
00000010
,
00000000
10100000
00000000
00000101
,
00000000
11000000
00000000
00000011
,
00000000
01000000
00000010
01000000
,
01000000
00000010
01000000
00100000
,
00000000
01100000
00000000
01000000
,
00000010
00000110
00000000
00000010
,
01000000
01100000
00000000
00010100
,
00000000
00100000
00000100
00000010
,
01000000
00000000
00100000
00100000
00100000
00000000
00000101
00000000
,
00000000
00000011
00000000
10100000
,
00000000
11000000
00000000
00000100
,
00000010
00000000
00000100
00000010
00000100
00000010
00000100
00000000
,
00000000
00000000
00000000
00100000
,
00000000
00000000
00000000
01000010
,
00000000
00000000
00000000
00000100
,
00100000
00000000
00100100
00000000
00000000
00000000
00100000
00000100
,
00100000
00000000
00100000
00000100
00100000
00000000
00000010
00000000
,
00000010
01000000
01000000
00010100
,
00000000
00000101
00000000
00110000
,
00000000
00000000
10100000
00000000
00000000
00000000
00000100
00100000
,
00000100
00000000
00000100
00100000
00000100
00000000
01000000
00000000
,
01000000
00000010
00000010
00110000
,
00000000
10100000
00000000
00010100
,
00000000
00000101
00000000
00100000
,
01000100
00000000
00000100
00000000
00100010
00000000
00000100
00000100
,
00000100
00000000
01000000
01000000
01000000
00000000
00010100
00000000
,
00000000
00010100
00000000
00100000
,
00000100
00000010
01000000
00000011
,
00000000
00000011
00000000
11000000
,
00000000
11000000
00000000
00000100
,
00000010
00000100
00000100
00100000
,
00100000
00000011
00000000
00100000
,
00100100
00000000
00000100
00000000
00000000
00000000
00100000
00100000
,
00100000
00000100
00100000
00000010
,
01000010
00000000
01000000
00000000
00000000
00000000
00000010
00000010
,
00000010
01000000
00000010
00000000
;
#NOTEDATA:;
#STEPSTYPE:ds3ddx-single;
#DESCRIPTION:Power;
#DIFFICULTY:Medium;
#METER:5;
#RADARVALUES:;
#BPMS:0.000=116.080;
#STOPS:0.000=0.000;
#DELAYS:;
#NOTES:
00000000
00000000
00000000
00000000
,
00000000
00000000
00000010
00000000
00000011
00000000
00000010
00100000
,
00000010
00000000
00000010
00000000
00000010
00000000
00000010
00000100
,
00000010
00000000
00000011
10000000
00010000
00000000
10000000
00000000
,
00000010
00100010
01000010
00000001
,
01000010
01000000
00000001
01000000
,
01000010
01000000
01000000
10000010
,
00000010
00000000
00000100
00100000
00100100
00000000
00000100
01000000
,
01000100
00000010
00000100
00100000
,
00100100
00000010
01000010
01000000
,
01000010
00000000
01000000
00000100
00000010
00000000
01000000
00100000
,
01000000
00111000
01010000
00000100
,
00100000
00000000
00100000
00000100
00100000
00000000
00100000
01000000
,
00100000
00000010
00000100
00000010
,
00010000
00000000
00000100
00000000
01000000
00000000
00000010
00100000
,
00000100
00100000
00000100
01000100
,
00100100
00000000
00100000
00000000
00000100
00000000
00100000
00000100
,
00100000
00100100
00000000
01100000
,
00000010
01100000
00000000
00000110
,
01000000
00000110
00000000
00110000
,
00000000
00000000
00000100
00000000
00100100
00000000
00000010
00100000
,
00000100
00000000
00000100
00100000
00000100
00000000
00000000
00000000
,
00100100
01000000
01100000
00000100
,
00100100
00000000
11000101
00000000
11000101
00000000
00000100
01000000
,
00000100
00100000
00000010
00000010
00100000
00000100
01000000
00000000
,
00000000
00000000
00000000
00000100
,
00000000
00000000
00000000
00000000
00000000
00000010
01000000
00000000
,
00000000
00000000
00000000
00000000
00000000
00000001
00000100
10000000
,
00100000
00010000
00100100
00000000
00000000
00000000
10110000
00000100
,
00100000
00000000
10110000
00000100
00100000
00000000
00000010
00000000
,
00000011
01000000
11000000
00010100
,
00010100
00000000
00000100
00000000
00000100
00000000
00110000
10000000
,
00100000
00000000
00100000
00000000
00100100
00000000
00010101
00100000
,
00000100
00000000
00010101
00100000
00000100
00000000
01000000
00000000
,
11000000
00000010
00000011
00110000
,
00110000
00100000
00100000
00100000
,
01000000
00000010
00000100
00100010
,
10100000
00000000
01000100
00000000
00000101
00000000
00000100
00000100
,
00000100
00100100
00100100
00010000
,
00010000
00110100
00100100
00000100
,
00100000
01000000
00000010
00010000
,
00011000
00010000
00100100
00100001
,
00000100
00100001
00100000
00000100
,
00000110
00000100
00000100
01100000
,
00100000
00000010
01000000
00100000
,
00100100
00000000
00100100
00000000
00000000
00000000
00000100
00000100
,
00000100
00110000
00100100
10100000
,
10100000
00000100
00000100
00100000
,
00100000
00000010
00000100
00000000
;
#NOTEDATA:;
#STEPSTYPE:ds3ddx-double;
#DESCRIPTION:Dual;
#DIFFICULTY:Medium;
#METER:5;
#RADARVALUES:;
#BPMS:0.000=116.080;
#STOPS:0.000=0.000;
#DELAYS:;
#NOTES:
0000000000000000
0000000000000000
0000000000000000
0000000000000000
,
0000000000000000
0000000000000000
0000000000000010
0000000000000000
0000000000000011
0000000000000000
0000000000000010
0000000000100000
,
0000000000000010
0000000000000000
0000000000000010
0000000000000000
0000000000000010
0000000000000000
0000000000000010
0000000000000100
,
0000000000000010
0000000000000000
0000000000000011
0000000010000000
0000000000010000
0000000000000000
0000000010000000
0000000000000000
,
0000000000100000
0000000001100000
0000001001000000
0000000000100000
,
0000010000100000
0000000000100000
0000000000010000
0000001000000000
,
0000011000000000
0000001000000000
0000001000000000
0000000001000000
,
0000000001000000
0000000000000000
0000000000100000
0000010000000000
0000010000100000
0000000000000000
0000000000100000
0000001000000000
,
0000001000100000
0000001000000000
0000010000000000
0010000000000000
,
0010010000000000
0000001000000000
0100001000000000
0100000000000000
,
0100001000000000
0000000000000000
0100000000000000
0000010000000000
0000001000000000
0000000000000000
0100000000000000
0010000000000000
,
0100000000000000
0011100000000000
0101000000000000
0000010000000000
,
0010000000000000
0000000000000000
0010000000000000
0000010000000000
0010000000000000
0000000000000000
0010000000000000
0100000000000000
,
0010000000000000
0000001000000000
0000010000000000
0000001000000000
,
0001000000000000
0000000000000000
0000010000000000
0000000000000000
0100000000000000
0000000000000000
0000001000000000
0000010000000000
,
0000000000100000
0000010000000000
0000000000100000
0000001000100000
,
0000010000100000
0000000000000000
0000010000000000
0000000000000000
0000000000100000
0000000000000000
0000010000000000
0000000000100000
,
0000010000000000
0000010000100000
0000000000000000
0000000001100000
,
0000001000000000
0000000001100000
0000000000000000
0000011000000000
,
0000000001000000
0000011000000000
0000000000000000
0000000000110000
,
0000000000000000
0000000000000000
0000000000000100
0000000000000000
0000000000100100
0000000000000000
0000000000000010
0000000000100000
,
0000000000000100
0000000000000000
0000000000000100
0000000000100000
0000000000000100
0000000000000000
0000000000000000
0000000000000000
,
0000000000100100
0000010000000000
0000010000100000
0000000000000100
,
0000000000100100
0000000000000000
0000000011000101
0000000000000000
0000000011000101
0000000000000000
0000000000000100
0000000001000000
,
0000000000000100
0000000000100000
0000000000000010
0000000000000010
0000000000100000
0000000000000100
0000000001000000
0000000000000000
,
0000000000000000
0000000000000000
0000000000000000
0000000000100000
,
0000000000000000
0000000000000000
0000000000000000
0000000000000000
0000000000000000
0000001000000000
0000000001000000
0000000000000000
,
0000000000000000
0000000000000000
0000000000000000
0000000000000000
0000000000000000
0000000000010000
0000000000100000
0001000000000000
,
0000010000000000
0000000000010000
0000000000100000
0000000000000000
0000000000000000
0000000000000000
0001010000000000
0000000000100000
,
0000010000000000
0000000000000000
0001010000000000
0000000000100000
0000010000000000
0000000000000000
0000000001000000
0000000000000000
,
0000000001000000
0000001000000000
0000001000000000
0000000000110000
,
0000000000110000
0000000000100000
0000000000100000
0000010000000000
,
0000010000000000
0000000000000000
0000010000000000
0000000000000000
0010010000000000
0000000000000000
0001010100000000
0010000000000000
,
0000010000000000
0000000000000000
0001010100000000
0010000000000000
0000010000000000
0000000000000000
0100000000000000
0000000000000000
,
1100000000000000
0000001000000000
0000001100000000
0011000000000000
,
0011000000000000
0010000000000000
0010000000000000
0010000000000000
,
0000001000000000
0000010000000000
0000000000100000
0000010000000000
,
0001010001000000
0000000000000000
0000000000100000
0000000000000000
0000001000110000
0000000000000000
0000000000100000
0000000000100000
,
0000000000100000
0000000000100100
0000000000100100
0000000000010000
,
0000000000010000
0000000000110100
0000000000100100
0000000000000100
,
0000000000100000
0000000001000000
0000000000000010
0000000000010000
,
0000000000011000
0000000000010000
0000000000100100
0000000000100001
,
0000000000000100
0000000000100001
0000000000100000
0000000000000100
,
0000000000000110
0000000000000100
0000000000000100
0000000001100000
,
0000000000100000
0000001000000000
0000000001000000
0000010000000000
,
0000010000100000
0000000000000000
0000010000100000
0000000000000000
0000000000000000
0000000000000000
0000010000000000
0000010000000000
,
0000010000000000
0011000000000000
0010010000000000
1010000000000000
,
1010000000000000
0000010000000000
0000010000000000
0010000000000000
,
0000001000000000
0000000000100000
0000000000000010
0000000000000000
;
