#TITLE:길;
#SUBTITLE:The Way;
#ARTIST:유승준 (Yoo Seung Jun);
#TITLETRANSLIT:;
#SUBTITLETRANSLIT:;
#ARTISTTRANSLIT:;
#CREDIT:locuuraa [from 18.mp];
#BANNER:The Way.png;
#BACKGROUND:The Way.png;
#LYRICSPATH:;
#CDTITLE:../CDTitles/3DDX.png;
#MUSIC:The Way.mp3;
#OFFSET:-0.076;
#SAMPLESTART:48.500;
#SAMPLELENGTH:10.000;
#DISPLAYBPM:121.0;
#BGCHANGES:;
#NOTEDATA:;
#STEPSTYPE:ds3ddx-single;
#DESCRIPTION:Pretty;
#DIFFICULTY:Easy;
#METER:3;
#RADARVALUES:;
#BPMS:0.000=121.000;
#STOPS:0.000=0.000;
#DELAYS:;
#NOTES:
00000000
00000000
00000000
00000000
,
00000000
00000000
00000000
00100000
,
00000010
01000000
00000100
01000000
,
00000000
01000000
00000010
00100000
,
00000000
00100000
00000010
01000000
,
00000000
00000010
00000000
01000000
,
00000010
00100000
00000100
00100100
,
00000000
00000000
00000000
10000010
,
00000000
01000001
00000000
00000010
,
01000000
00000010
00000000
01000000
,
00000100
01000000
00000010
00100000
,
00000000
00000010
00000000
01000010
,
00000000
00000000
00000000
00000010
,
01000000
00000100
00000000
01000000
,
01000000
00000010
00000010
00100000
,
00000000
00000100
00000000
10100000
,
00000000
10100000
00000000
00000101
,
00000000
00000000
00000101
00000000
00000000
00000000
00100000
00000100
,
00100000
00000000
00000000
00000000
00000000
00000000
00000010
01000000
,
00000010
00000000
00000000
01000000
,
00000000
11000000
00000000
00000010
,
00000000
00000011
00000000
01000000
,
01000000
00000100
00000100
00110000
,
00000000
00000000
00000000
00100000
,
00000100
00100000
00000000
01000000
,
00000010
00110000
00000000
00000010
,
01000000
00010100
00000000
01000000
,
01000000
00000010
00000010
00100000
,
00000000
00000100
00000000
01000000
,
00000010
00110000
00000000
00000010
,
01000000
00010100
00000000
00000100
,
00000000
00100000
00000000
00000010
,
01000000
00000010
00000000
00000000
,
00000000
00000000
00000000
00100100
,
00000000
00000000
00000100
00000000
00000000
00000000
01000000
00100000
,
01000000
00000000
00000000
00000000
00000000
00000000
00000010
00000100
,
00000010
00000000
00000000
01000010
,
00000000
00000000
00000000
00000010
,
01000000
00000010
00000010
00100000
,
00000000
00100000
00000000
10000010
,
00000000
01000001
00000000
00000100
,
00000000
00000100
00000000
01000000
,
00000010
00000010
01000000
00000010
,
00000000
01000000
00000000
00000100
,
00000000
00000000
00100000
00000000
00000000
00000000
00000010
00000100
,
00000010
00000000
00000000
00100000
,
00000010
01000000
00000100
00100100
;
#NOTEDATA:;
#STEPSTYPE:ds3ddx-single;
#DESCRIPTION:Power;
#DIFFICULTY:Medium;
#METER:4;
#RADARVALUES:;
#BPMS:0.000=121.000;
#STOPS:0.000=0.000;
#DELAYS:;
#NOTES:
00000000
00000000
00000000
00000000
,
00000000
00000000
00000000
00000000
00000000
00000000
00100000
01000000
,
00000010
00100000
00000100
00000100
01000000
00000010
00100000
00000010
,
01000000
00000000
00000000
00000001
11000000
00000000
00000100
01000000
,
00000010
00000000
00000000
10000000
00000011
00000000
01000000
10000000
,
00000100
00000000
00000000
00100000
00010010
00000000
01000000
00000000
,
00000010
00000000
00100000
01000000
00000100
00000000
01000010
00000000
,
00000000
00000000
00000000
10000010
,
00110000
00110000
01000010
01000001
,
00000000
00000000
10000010
00000000
00000000
00000000
01000000
10000000
,
00010000
00000000
00000100
00100000
00000010
00000000
11000001
00000000
,
10000011
00000000
00100000
00100000
00000011
00000000
01000000
00000000
,
00000000
00000000
00000000
00000000
00000010
00000000
01000000
10000000
,
00000010
00000001
00100000
00010000
00000100
00010000
10000000
00000000
,
00000010
00000000
01000000
00000000
01000000
00000000
00000010
00100000
,
00000010
01000000
00000010
00000000
01010000
00000000
00100100
00000000
,
00000011
00100100
11000000
00100100
,
11000000
00000000
00100100
00000000
00000011
00000000
00100000
00000100
,
00100100
00000000
00100000
00000100
01000000
00000000
00000010
00000000
,
00000010
00000010
00000010
00000000
,
01000001
00000000
01000001
00000000
,
10000010
00000000
00000000
00000000
10000010
00000000
00110000
00000010
,
01000000
00000100
00000010
00100000
,
00000100
00000000
01000000
00000000
00000010
00000000
00100100
00100100
,
01000100
00100000
01000100
00000000
00000000
00000000
00010010
00000000
,
01010000
00000000
00000010
10000000
00000010
00000000
00010000
00000000
,
00110000
00000000
00000010
00100000
00000100
00000000
01000000
10000000
,
01000000
00000000
00000010
00000001
00000010
00000000
00100000
00000000
,
00100000
00100000
00100000
00010010
,
11000001
00010010
00010010
01000000
,
10000011
01010000
01010000
00000100
,
00000000
00000000
00100000
00000000
00000000
00000000
00010100
01000000
,
00000010
00000000
00000000
00000000
,
00000000
00000000
00000000
00000000
00000000
00000000
10100001
00000010
,
01000000
00000000
00000000
01000010
01000001
00000000
00000100
01000000
,
00000010
00000000
00000000
00100000
00010010
00000000
01000100
01000100
,
00000010
00000000
00000000
01000000
00000010
00000000
01010000
00000000
,
00000000
00000000
00000000
00010010
,
01010000
00000000
00000010
10000000
00000010
00000000
00110000
00000000
,
00110000
00000000
00000010
00100000
00000100
00000000
10000010
00000000
,
00000000
01000001
00000000
00000100
,
00000100
00000000
00000100
01000000
00000100
00000000
01010000
00000000
,
10000011
01010000
01010000
00000010
,
01010000
01010000
10000011
00100000
,
00000000
00000000
00000100
00000000
00000000
00000000
00100000
00000010
,
01000001
00000000
00000000
00000000
00000000
00000000
00000100
01000000
,
00000010
00100000
00000010
00000010
01000000
00000100
01000000
00000000
;
#NOTEDATA:;
#STEPSTYPE:ds3ddx-double;
#DESCRIPTION:Dual;
#DIFFICULTY:Medium;
#METER:4;
#RADARVALUES:;
#BPMS:0.000=121.000;
#STOPS:0.000=0.000;
#DELAYS:;
#NOTES:
0000000000000000
0000000000000000
0000000000000000
0000000000000000
,
0000000000000000
0000000000000000
0000000000000000
0000000000000000
0000000000000000
0000000000000000
0010000000000000
0100000000000000
,
0000001000000000
0000010000000000
0000000000100000
0000000000100000
0000001000000000
0000000001000000
0000010000000000
0000000001000000
,
0000001000000000
0000000000000000
0000000000000000
0000000000010000
0000001000000000
0000000000000000
0000000000100000
0000000001000000
,
0000001000000000
0000000000000000
0000000000000000
0001000000000000
0000000001000000
0000000000000000
0000000000000100
0000000000000010
,
0000000001000000
0000000000000000
0000000000000000
0000000000100000
0000000000010010
0000000000000000
0000000000100000
0000000000000000
,
0000000000000100
0000000000000000
0000000000100000
0000000000000100
0000000001000000
0000000000000000
0000000001000010
0000000000000000
,
0000000000000000
0000000000000000
0000000000000000
1000001000000000
,
0011000000000000
0011000000000000
0100001000000000
0100000100000000
,
0000001000000000
0000000000000000
1000001000000000
0000000000000000
0100000000000000
0000000000000000
0100000000000000
1000000000000000
,
0001000000000000
0000000000000000
0000010000000000
0000001000000000
0000000000100000
0000000000000000
0000001000010000
0000000000000000
,
0000000001010000
0000000000000000
0000000000100000
0000000000000010
0000000001000000
0000000000000000
0000000010000010
0000000000000000
,
0000000000000000
0000000000000000
0000000000000000
0000000000000000
0000000000000010
0000000000000000
0000000001000000
0000000010000000
,
0000000000000010
0000000000000001
0000000000100000
0000000000000100
0000000000100000
0000000000000000
0000000000000100
0000000000000000
,
0000000000000011
0000000000000000
0000000000100000
0000000000000000
0000000000100000
0000000000000000
0000000001000000
0000010000000000
,
0000000001000000
0000001000000000
0000000001000000
0000010000000000
0000001000000000
0000000000000000
0001000000000000
0000000000000000
,
1100000000000000
0001000000000000
1100000000000000
0000010000000000
,
0010000000000000
0000000000000000
0000010000000000
0000000000000000
0000000000000000
0000000000000000
0010000000000000
0000010000000000
,
0010010000000000
0000000000000000
0010000000000000
0000010000000000
0100000000000000
0000000000000000
0000001000000000
0000000000000000
,
0000001000000000
0000000001000000
0000000001000000
0000000000000000
,
0000000010000100
0000000000000000
0000000010000100
0000000001000000
,
0000000000000010
0000000000000000
0000000001010000
0000000000000000
0000000000000011
0000000000000000
0000000000110000
0000000000000010
,
0000000001000000
0000000000000000
0000000000000100
0000000001000000
0000000000000010
0000000000000000
0000000000100000
0000000000000000
,
0000000001100000
0000000000000000
0000000000000000
0000010000000000
0000001000000000
0000000000000000
0010000000000000
0000010000000000
,
0010001000000000
0001000000000000
0100010000000000
0000000000000000
0000000000000000
0000000000000000
0001001000000000
0000000000000000
,
0101000000000000
0000000000000000
0000001000000000
1000000100000000
0000001000000000
0000000000000000
0011000000000000
0000000000000000
,
0011000000000000
0000000000000000
0010000000000000
0000010000000000
0010001000000000
0000000000000000
0100000000000000
0000000100000000
,
0100000000000000
0000000000000000
0000001000000000
1000000000000000
0000001000000000
0000000000000000
0010000000000000
0000000000000000
,
0010000000000000
0000000000000000
0000010000000000
0000001000000000
0000000001000000
0000000000100000
0000000000010010
0000000000000000
,
0000000011000001
0000000000010010
0000000000010010
0000000001000000
,
0000000010000011
0000000001010000
0000000001010000
0000000000100000
,
0000000000000000
0000000000000000
0010000000000000
0000000000000000
0000000000000000
0000000000000000
0001010000000000
0100000000000000
,
0000001000000000
0000000000000000
0000000000000000
0000000000000000
,
0000000000000000
0000000000000000
0000000000000000
0000000000000000
0000000000000000
0000000000000000
1010000100000000
0000001000000000
,
0100000000000000
0000000000000000
0000000000000000
0000010000000000
0000011000000000
0000000000000000
0000000000100000
0000001000000000
,
0000000001000000
0000000000000000
0000000000000000
0000000000100000
0000000001010000
0000000000000000
0000000001000100
0000000000100000
,
0000000001000100
0000000000000000
0000000000000000
0000000001000000
0000000000000010
0000000000000000
0000000001010000
0000000000000000
,
0000000000000000
0000000000000000
0000000000000000
0000000000010010
,
0000000001010000
0000000000000000
0000000000000010
0000000010000001
0000000000000010
0000000000000000
0000000000110000
0000000000000000
,
0000000000110000
0000000000000000
0000000000100000
0000000000000100
0000000000100010
0000000000000000
0000000010000010
0000000000000000
,
0000000001000000
0000000001000001
0000000000000010
0000000000000100
,
0000000000000100
0000000000000000
0000000000100000
0000000001000000
0000001000000000
0000010000000000
0101000000000000
0000000000000000
,
1000001100000000
0101000000000000
0101000000000000
0000001000000000
,
0101000000000000
0101000000000000
1000001100000000
0010000000000000
,
0000000000000000
0000000000000000
0000000000100000
0000000000000000
0000000000000000
0000000000000000
0000000000100000
0000000000000010
,
0000000001000001
0000000000000000
0000000000000000
0000000000000000
0000000000000000
0000000000000000
0000000000000100
0000000001000000
,
0000000000000010
0000000000100000
0000000001000000
0000000001000000
0000010000000000
0000001000000000
1000000000000000
0000000000000000
;
