#TITLE:택시;
#SUBTITLE:Taxi;
#ARTIST:닥터코어911 (Dr. Core 911);
#TITLETRANSLIT:;
#SUBTITLETRANSLIT:;
#ARTISTTRANSLIT:;
#CREDIT:locuuraa [from 49.mp];
#BANNER:Taxi.png;
#BACKGROUND:Taxi.png;
#LYRICSPATH:;
#CDTITLE:../CDTitles/3DDX.png;
#MUSIC:Taxi.mp3;
#OFFSET:-0.050;
#SAMPLESTART:3.500;
#SAMPLELENGTH:10.000;
#DISPLAYBPM:212.0;
#BGCHANGES:;
#NOTEDATA:;
#STEPSTYPE:ds3ddx-single;
#DESCRIPTION:Pretty;
#DIFFICULTY:Easy;
#METER:9;
#RADARVALUES:;
#BPMS:0.000=212.800,112.000=95.550,159.000=212.800;
#STOPS:0.000=0.000;
#DELAYS:;
#NOTES:
00000000
00000000
00000000
00000000
,
00000000
00000000
00000000
00000000
,
00000000
00000000
00000000
00000000
,
00000000
00000000
00000000
00000000
,
00100000
00000100
10100000
00000000
,
00000100
00100000
00000101
00000000
,
01000000
00000010
01000010
00000000
,
00100000
00000100
10100001
00000000
,
00000010
01000000
00000011
00000000
,
01000000
00000010
11000000
00000000
,
00000100
00100000
00000100
00100000
,
00000010
01000000
10000011
00000000
,
01000000
00100000
01000000
00100000
01000000
00100000
01000000
00000000
,
00000000
00000000
00000000
00000000
,
00000010
00000100
00000010
00000100
00000010
00000100
00000010
00000000
,
00000000
00000000
00000000
00000000
,
01000000
00000100
01000000
00000100
01000000
00000100
01000000
00000000
,
00000000
00000000
00000000
00000000
,
00000010
00100000
00000010
00100000
00000010
00100000
00000010
00000000
,
00000000
00000000
00000000
00000000
,
10100001
00000000
10000101
00000000
,
00100100
00000000
00100100
00000000
,
10000010
00000000
01000001
00000000
,
01000010
00000000
01000010
00000000
,
00000100
00100000
00000100
00000000
00000000
00000000
00000000
00000000
,
00100000
00000100
00100000
00000000
00000000
00000000
00000000
00000000
,
00000010
01000000
00000010
00000000
00000000
00000000
00000000
00000000
,
01000000
00000010
01000000
00000000
00000000
00000000
00000000
00000000
,
01000010
00000000
01000010
00000000
01000000
00000100
00110000
00000000
,
00000010
00000000
01000000
00000000
00000010
00000100
00000010
00000000
,
01000000
11000000
00000010
00000011
,
00100000
00000100
00100100
00000000
01000000
00100000
01100000
00000000
,
00000010
00000100
00000110
00000000
01000000
00000010
01000010
00000000
,
00100000
00000000
00000100
00010000
00000100
00010000
00000100
00000000
,
01000001
00000000
10000010
00000000
01000000
00000010
00100000
00000000
,
10000010
00000000
01000001
00000000
00000010
01000000
00000100
00000000
,
00000000
01000010
00100100
00000000
,
00100000
00000100
01000000
00000000
00000010
00000000
11000000
00000000
,
00000100
00100000
00000010
00000000
01000000
00000000
00000011
00000000
,
01000000
00100000
00000100
00000000
,
00000000
00000000
00000000
01000010
00000000
00000000
00000000
00000000
00000000
00000000
00000000
01000010
00000000
00000000
00000000
00000000
,
00000000
00000000
00000000
00110000
00000000
00000000
00000000
00000000
00000000
00000000
00000000
00010100
00000000
00000000
00000000
00000000
,
00000000
00000000
00000000
00100100
00000000
00000000
00000000
00000000
00000000
00000000
00000000
00100100
00000000
00000000
00000000
00000000
,
00000000
00000000
00000000
01000000
00000000
00000000
00000000
00100000
00000000
00000000
00000000
01000001
00000000
00000000
00000000
00000000
,
00000000
00000000
00000000
01100000
00000000
00000000
00000000
00000000
00000000
00000000
00000000
01100000
00000000
00000000
00000000
00000000
,
00000000
00000000
00000000
00000011
00000000
00000000
00000000
00000000
00000000
00000000
00000000
00010100
00000000
00000000
00000000
00000000
,
00000000
00000000
00000000
00000110
00000000
00000000
00000000
00000000
00000000
00000000
00000000
00000110
00000000
00000000
00000000
00000000
,
00000000
00000000
00000000
00000010
00000000
00000000
00000000
00000100
00000000
00000000
00000000
10000010
00000000
00000000
00000000
00000000
,
00000000
00000000
00000000
01000000
00000000
00000000
00000000
01000000
00000000
00000000
00000000
00000010
00000000
00000000
00000000
00000010
,
00000000
00000000
00000000
00000100
00000000
00000000
00000000
00000100
00000000
00000000
00000000
00100000
00000000
00000000
00000000
00100000
,
00000000
00000000
00000000
01000000
00000000
00000000
00000000
00000010
00000000
00000000
00000000
00000100
00000000
00000000
00000000
00100000
,
00000000
00000000
00000000
00000010
00000000
00000000
00000000
00000100
00000000
00000000
00000000
01000000
00000000
00000000
00000000
00000100
,
00000000
00000000
00000000
00100000
00000000
00000000
00000000
01000000
00000000
00000000
00000000
00000100
00000000
00000000
00000000
00100000
,
00000000
00000000
00000000
00000100
00000000
00000000
00000000
01000000
00000000
00000000
00000000
00000100
00000000
00000000
00000000
00100000
,
00000000
00000000
00000000
00100000
00000000
00000000
00000000
00000100
00000000
00000000
00000000
00000010
00000000
00000000
00000000
01000000
,
00000000
00000000
00000000
00000010
00000000
00000000
00000000
01000000
00000000
00000000
00000000
00100000
00000000
00000000
00000000
00100000
,
00000000
00000000
00000000
01010100
00000000
00000000
00000000
00000000
00000000
00000000
00000000
00000000
00000000
00000000
00000000
00000000
;
#NOTEDATA:;
#STEPSTYPE:ds3ddx-single;
#DESCRIPTION:Power;
#DIFFICULTY:Medium;
#METER:9;
#RADARVALUES:;
#BPMS:0.000=212.800,112.000=95.550,159.000=212.800;
#STOPS:0.000=0.000;
#DELAYS:;
#NOTES:
00000000
00000000
00000000
00000000
,
00000000
00000000
00000000
00000000
,
00000000
00000000
00000000
00000000
,
00000000
00000000
00000000
00000000
,
00100000
00000100
01000000
01000010
,
00000100
00100000
00000010
01000010
,
01000000
00000100
00100000
00100100
,
00000010
00100000
00000100
00100100
,
00100000
00000100
00100000
00000010
01000000
00000000
00000000
00000000
,
00000100
00100000
00000100
01000000
00000010
00000000
00000000
00000000
,
01000000
00000010
01000010
01000010
,
00100000
00000100
00100100
00000000
,
01000000
00000010
00100000
00000100
00100000
00000010
01000000
01000000
,
00000010
00000100
00000010
00100000
00000100
01000000
00100000
01000000
,
00000010
01000000
00000010
01000000
00000100
00100000
00000100
00100000
,
00000010
01000000
00100000
01000000
00100000
01000000
00000010
01000000
,
00000010
00000100
00000010
00000100
00000010
01000000
00000010
01000000
,
00000100
00100000
00000100
00000100
01000000
00000010
01000000
01000000
,
00000010
01000000
00000010
00100000
00000010
01000000
00000010
00100000
,
00000100
01000000
00000100
00100000
00000100
01000000
00000100
00100000
,
00000010
10000000
01000000
00000001
,
01000010
00000000
01000010
00000000
,
00000100
00010000
00100000
00010000
,
00100100
00000000
00100100
00000000
,
00000010
01000000
00000010
00000000
00100000
00000000
00000101
00000000
,
00100000
00000100
00100000
00000000
00000010
00000000
11000000
00000000
,
00000100
00100000
00000100
00000000
01000010
00000000
01000010
00000000
,
00100000
00000100
00100000
00000000
00000010
00000000
01000000
00000000
,
00000101
00000000
10100000
00000000
00000100
00010000
10000010
00000000
,
01000000
00000000
00000010
00000000
01000000
00000100
00110000
00000000
,
01000100
00010000
00100010
00000000
00100010
00010000
01000100
00000000
,
00000011
00000000
11000000
00000000
00000010
00100000
00010100
00000000
,
01000000
01000000
10000010
00000000
00000010
00000010
01000001
00000000
,
01000010
00000000
01000010
00010000
00100010
00010000
01000100
00000000
,
01000010
00000000
01000010
00000000
00100000
00010000
00000100
00010000
,
01000000
00000001
00000010
10000000
00100000
00010000
00000100
00010000
,
00100100
00000010
01000000
00000010
01000000
00000000
00000011
00000000
,
00000100
00100000
01000000
00000000
00000010
00000000
11000000
00000000
,
00100000
00000100
00000010
00000000
01000000
00000000
00000011
00000000
,
01000001
00000000
10000010
00000000
01000000
00000010
01000000
00000000
,
00000000
00000000
00000000
01000010
00000000
00000000
00000000
00000000
00000000
00000000
00000000
00100100
00000000
00000000
00000000
00000000
,
00000000
00000000
00000000
00000100
00000000
00000000
00000000
00100000
00000000
00000000
00000000
00000010
00000000
00000000
00000000
01000000
,
00000000
00000000
00000000
11000011
00000000
00000000
00000000
00000000
00000000
00000000
00000000
00100100
00000000
00000000
00000000
00000000
,
00000000
00000000
00000000
01000000
00000000
00000000
00000000
00000010
00000000
01000000
00000000
00000000
00000000
00000000
00000000
00000000
,
00000000
00000000
00000000
00100100
00000000
00000000
00000000
00000000
00000000
00000000
00000000
01000010
00000000
00000000
00000000
00000000
,
00000000
00000000
00000000
00000010
00000000
00000000
00000000
01000000
00000000
00000000
00000000
00000100
00000000
00000000
00000000
00100000
,
00000000
00000000
00000000
10100101
00000000
00000000
00000000
00000000
00000000
00000000
00000000
01000010
00000000
00000000
00000000
00000000
,
00000000
00000000
00000000
00100000
00000000
00000000
00000000
00000100
00000000
00100000
00000000
00000000
00000000
00000000
00000000
00000000
,
00000000
00000000
00000000
00000100
00000000
00100000
00000000
00000010
00000000
01000000
00000000
00000010
00000000
00100000
00000000
00000100
,
00000000
00000100
00000000
00100000
00000000
01000000
00000000
00100000
00000000
00000010
00000000
01000000
00000000
00000100
00000000
00000010
,
00000000
00000100
00000000
00100000
00000000
00000100
00000000
00100000
00000000
00000100
00000000
01000000
00000000
00000010
00000000
01000000
,
00000000
00000010
00000000
00100000
00000000
00000100
00000000
00000010
00000000
00000100
00000000
00000010
00000000
00000100
00000000
00100000
,
00000000
00000100
00000000
00100000
00000000
01000000
00000000
00100000
00000000
01000000
00000000
00100000
00000000
00000100
00000000
00100000
,
00000000
00000100
00000000
01000000
00000000
00000010
00000000
01000000
00000000
01000000
00000000
00000100
00000000
00100000
00000000
00000100
,
00000000
00000100
00000000
00100000
00000000
00000010
00000000
00100000
00000000
00000100
00000000
00100000
00000000
00000010
00000000
00100000
,
00000000
00000100
00000000
01000000
00000000
00000010
00000000
01000000
00000000
00000100
00000000
01000000
00000000
00000010
00000000
01000000
,
00000000
00000100
00000000
00100000
00000000
10000101
00000000
00000000
00000000
00000000
00000000
00000000
00000000
00000000
00000000
00000000
;
#NOTEDATA:;
#STEPSTYPE:ds3ddx-double;
#DESCRIPTION:Dual;
#DIFFICULTY:Medium;
#METER:10;
#RADARVALUES:;
#BPMS:0.000=212.800,112.000=95.550,159.000=212.800;
#STOPS:0.000=0.000;
#DELAYS:;
#NOTES:
0000000000000000
0000000000000000
0000000000000000
0000000000000000
,
0000000000000000
0000000000000000
0000000000000000
0000000000000000
,
0000000000000000
0000000000000000
0000000000000000
0000000000000000
,
0000000000000000
0000000000000000
0000000000000000
0000000000000000
,
0010000000000000
0000010000000000
0100000000000000
0100001000000000
,
0000010000000000
0010000000000000
0000001000000000
0000011000000000
,
0000001000000000
0000000000100000
0000000001000000
0000000001000010
,
0000000000000010
0000000000100000
0000000000000100
0000000000100100
,
0000000000100000
0000000000000100
0000000000100000
0000000000000010
0000000001000000
0000000000000000
0000000000000000
0000000000000000
,
0000000000100000
0000010000000000
0000000000100000
0000001000000000
0000000001000000
0000000000000000
0000000000000000
0000000000000000
,
0000001000000000
0000000001000000
0000001001000000
0000001001000000
,
0000010000000000
0000001000000000
0110000000000000
0000000000000000
,
0100000000000000
0000001000000000
0010000000000000
0000010000000000
0010000000000000
0000001000000000
0100000000000000
0100000000000000
,
0000001000000000
0000010000000000
0000000000100000
0000010000000000
0000000001000000
0000000000100000
0000000000000100
0000000001000000
,
0000000000000010
0000000001000000
0000000000000010
0000000001000000
0000000000000100
0000000000100000
0000000000000100
0000000000100000
,
0000000000000010
0000000001000000
0000000000100000
0000010000000000
0000001000000000
0100000000000000
0000001000000000
0100000000000000
,
0000001000000000
0000010000000000
0000001000000000
0100000000000000
0000001000000000
0010000000000000
0000001000000000
0100000000000000
,
0000010000000000
0010000000000000
0000010000000000
0000010000000000
0000001000000000
0000000001000000
0000001000000000
0000001000000000
,
0000000001000000
0000001000000000
0000000001000000
0000010000000000
0000000001000000
0000001000000000
0000000001000000
0000000000100000
,
0000000000000100
0000000001000000
0000000000000100
0000000000100000
0000000000000100
0000000001000000
0000000000000100
0000000000100000
,
0000000000000010
0000000011000000
0000000001000000
0000000000000011
,
0000000001000010
0000000000000000
0000001001000000
0000000000000000
,
0000010000000000
0001000000000000
0010000000000000
0001000000000000
,
0010010000000000
0000000000000000
0000001001000000
0000000000000000
,
0000000000100000
0000010000000000
0000000000100000
0000000000000000
0000001000000000
0000000000000000
0001000001000000
0000000000000000
,
0000010000000000
0000000000100000
0000010000000000
0000000000000000
0000000001000000
0000000000000000
0000001000010000
0000000000000000
,
0000000001000000
0000001000000000
0000000001000000
0000000000000000
0000001000000000
0000000000000000
0100000000000000
0000000000000000
,
0010000000000000
0000010000000000
0010000000000000
0000000000000000
0000001000000000
0000000000000000
0100000000000000
0000000000000000
,
0000010100000000
0000000000000000
1010000000000000
0000000000000000
0000010000000000
0001000000000000
0001101000000000
0000000000000000
,
0000000001000000
0000000000000000
0000000000000010
0000000000000000
0000000001000000
0000000000000100
0000000000110000
0000000000000000
,
0000000001000100
0000000000010000
0000000000100100
0000000000000000
0000010000100000
0001000000000000
0000011000000000
0000000000000000
,
1100000000000000
0000000000000000
0000001100000000
0000000000000000
0100000000000000
0000010000000000
0011000000000000
0000000000000000
,
0100000000000000
0000001000000000
0001010100000000
0000000000000000
0000000001000000
0000001000000000
0001000001000000
0000000000000000
,
0000001001000000
0000000000000000
0100001000000000
0001000000000000
0010010000000000
0001000000000000
0000010000100000
0000000000000000
,
0000000000100100
0000000000000000
0000000001000010
0000000000000000
0000000000100000
0000000000010000
0000000000000100
0000000000010000
,
0000000001000000
0000000000000001
0000000000000010
0000000010000000
0000000000100000
0000000000010000
0000000000000100
0000000000010000
,
0000000000100100
0000010000000000
0000000001000000
0100000000000000
0000001000000000
0000000000000000
1100000000000000
0000000000000000
,
0000010000000000
0010000000000000
0100000000000000
0000000000000000
0100000000000000
0000000000000000
0000001100000000
0000000000000000
,
0010000000000000
0000010000000000
0000001000000000
0000000000000000
0001100000100000
0000000000000000
0000010000011000
0000000000000000
,
0000001000010000
0000000000000000
0001000001000000
0000000000000000
0000001000000000
0000000000100000
0000000000000000
0000000000000000
,
0000000000000000
0000000000000000
0000000000000000
0000000001000010
0000000000000000
0000000000000000
0000000000000000
0000000000000000
0000000000000000
0000000000000000
0000000000000000
0000000000100100
0000000000000000
0000000000000000
0000000000000000
0000000000000000
,
0000000000000000
0000000000000000
0000000000000000
0000000000000100
0000000000000000
0000000000000000
0000000000000000
0000000000100000
0000000000000000
0000000000000000
0000000000000000
0000000000000010
0000000000000000
0000000000000000
0000000000000000
0000000001000000
,
0000000000000000
0000000000000000
0000000000000000
0000000010000010
0000000000000000
0000000000000000
0000000000000000
0000000000000000
0000000000000000
0000000000000000
0000000000000000
0000000001000001
0000000000000000
0000000000000000
0000000000000000
0000000000000000
,
0000000000000000
0000000000000000
0000000000000000
0100000000000000
0000000000000000
0000000000000000
0000000000000000
0000001000000000
0000000000000000
0100000000000000
0000000000000000
0000000000000000
0000000000000000
0000000000000000
0000000000000000
0000000000000000
,
0000000000000000
0000000000000000
0000000000000000
0010010000000000
0000000000000000
0000000000000000
0000000000000000
0000000000000000
0000000000000000
0000000000000000
0000000000000000
0100001000000000
0000000000000000
0000000000000000
0000000000000000
0000000000000000
,
0000000000000000
0000000000000000
0000000000000000
0000001000000000
0000000000000000
0000000000000000
0000000000000000
0100000000000000
0000000000000000
0000000000000000
0000000000000000
0000010000000000
0000000000000000
0000000000000000
0000000000000000
0010000000000000
,
0000000000000000
0000000000000000
0000000000000000
1000010000000000
0000000000000000
0000000000000000
0000000000000000
0000000000000000
0000000000000000
0000000000000000
0000000000000000
0010000100000000
0000000000000000
0000000000000000
0000000000000000
0000000000000000
,
0000000000000000
0000000000000000
0000000000000000
0010000000000000
0000000000000000
0000000000000000
0000000000000000
0000010000000000
0000000000000000
0010000000000000
0000000000000000
0000000000000000
0000000000000000
0000000000000000
0000000000000000
0000000000000000
,
0000000000000000
0000000000000000
0000000000000000
0000010000000000
0000000000000000
0010000000000000
0000000000000000
0000001000000000
0000000000000000
0100000000000000
0000000000000000
0000001000000000
0000000000000000
0010000000000000
0000000000000000
0000010000000000
,
0000000000000000
0000010000000000
0000000000000000
0010000000000000
0000000000000000
0100000000000000
0000000000000000
0010000000000000
0000000000000000
0000001000000000
0000000000000000
0100000000000000
0000000000000000
0000010000000000
0000000000000000
0000001000000000
,
0000000000000000
0000000001000000
0000000000000000
0000000000100000
0000000000000000
0000000000000100
0000000000000000
0000000000100000
0000000000000000
0000000000000100
0000000000000000
0000000001000000
0000000000000000
0000000000000010
0000000000000000
0000000001000000
,
0000000000000000
0000000000000010
0000000000000000
0000000000100000
0000000000000000
0000000000000100
0000000000000000
0000000000000010
0000000000000000
0000000000000100
0000000000000000
0000000000000010
0000000000000000
0000000000000100
0000000000000000
0000000000100000
,
0000000000000000
0000000000000100
0000000000000000
0000000000100000
0000000000000000
0000000001000000
0000000000000000
0000000000100000
0000000000000000
0000000001000000
0000000000000000
0000000000100000
0000000000000000
0000000000000100
0000000000000000
0000000000100000
,
0000000000000000
0000000000000100
0000000000000000
0000000001000000
0000000000000000
0000000000000010
0000000000000000
0000000001000000
0000000000000000
0000000001000000
0000000000000000
0000000000000100
0000000000000000
0000000000100000
0000000000000000
0000000000000100
,
0000000000000000
0000000000000100
0000000000000000
0000000000100000
0000000000000000
0000000000000010
0000000000000000
0000000000100000
0000000000000000
0000000000000100
0000000000000000
0000000001000000
0000000000000000
0000000000100000
0000000000000000
0000001000000000
,
0000000000000000
0000000001000000
0000000000000000
0000001000000000
0000000000000000
0000010000000000
0000000000000000
0010000000000000
0000000000000000
0000010000000000
0000000000000000
0100000000000000
0000000000000000
0000001000000000
0000000000000000
0100000000000000
,
0000000000000000
0000010000000000
0000000000000000
0000001000000000
0000000000000000
0000110000000000
0000000000000000
0000000000000000
0000000000000000
0000000000000000
0000000000000000
0000000000000000
0000000000000000
0000000000000000
0000000000000000
0000000000000000
;
