#TITLE:談情說愛;
#SUBTITLE:Talk About Love;
#ARTIST:葉蒨文 (Sally Yeh);
#TITLETRANSLIT:tán qíng shuō ài;
#SUBTITLETRANSLIT:;
#ARTISTTRANSLIT:Yèqiànwén;
#CREDIT:locuuraa [from 08.mp];
#BANNER:Talk About Love.png;
#BACKGROUND:Talk About Love.png;
#LYRICSPATH:;
#CDTITLE:../CDTitles/3DDX.png;
#MUSIC:Talk About Love.mp3;
#OFFSET:-0.367;
#SAMPLESTART:11.000;
#SAMPLELENGTH:10.000;
#DISPLAYBPM:132.0;
#BGCHANGES:;
#NOTEDATA:;
#STEPSTYPE:ds3ddx-single;
#DESCRIPTION:Pretty;
#DIFFICULTY:Easy;
#METER:4;
#RADARVALUES:;
#BPMS:0.000=132.100;
#STOPS:0.000=0.000;
#DELAYS:;
#NOTES:
00000000
00000000
00000000
00000000
,
00000000
00000000
00000000
00000000
,
00000100
00000000
00000000
00000000
00000000
01000000
00000000
00000010
,
01000000
00000000
00000000
00000000
,
01000010
00000000
00000000
00000000
,
00000000
00000000
00000000
00000000
,
11000000
01000000
00000011
00000010
,
01000000
00000010
10000000
00000001
,
00000011
00000010
11000000
01000000
,
00000010
01000000
00000001
10000000
,
00000100
00000000
00100000
00000000
,
00000010
01000000
00100000
00000100
,
00100000
00000000
00000100
00000000
,
01000000
00000010
00000100
00100000
,
00010000
00000000
10000000
00000000
00000100
00100000
00000100
00000000
,
00010000
00000000
00000001
00000000
01000000
00000010
01000000
00000000
,
00000100
00000001
00100000
10000000
,
00000010
00000010
01000000
01000000
,
00000100
01000000
00000100
01000000
,
00000010
00100000
00000010
00100000
,
01000000
00000001
00000010
10000000
,
00100000
01000000
00000100
00000010
,
00000000
00000010
00000000
00000010
,
00000000
01000000
00000000
01000000
,
00000000
00000100
00000000
00100000
,
00000000
00000100
00000000
00100000
,
00000001
00000000
00000000
00000000
,
10000000
00000000
00000001
00000000
,
00010000
00000000
00000000
00000000
,
01000010
00000000
00000000
00000000
,
00000001
00000010
10000000
01000000
,
00000010
01000000
00000001
00000010
,
10000000
01000000
00000100
00100000
,
00000100
01000000
00000010
01000010
,
00100000
00010000
00000100
00010000
,
01000000
11000000
00000010
00000011
,
00100000
01000000
00000100
00000010
,
01000000
00000010
01000000
01000000
,
00000001
00000100
10000000
00100000
,
00000100
00100000
00000001
00000100
,
10000000
00100000
00000010
01000000
,
00000010
00000000
00000010
00000000
01000000
00100000
01000000
00000000
,
00000100
00010000
00100000
00010000
,
00000010
00000011
01000000
11000000
,
00000100
00000100
01000000
00000010
,
10000001
00000000
00000000
00000000
,
10100000
00100000
00000100
00000101
,
00100000
00000100
00100000
00000100
,
01000000
00000000
00000010
00000000
,
00100000
00000100
01000000
00000000
;
#NOTEDATA:;
#STEPSTYPE:ds3ddx-single;
#DESCRIPTION:Power;
#DIFFICULTY:Medium;
#METER:4;
#RADARVALUES:;
#BPMS:0.000=132.100;
#STOPS:0.000=0.000;
#DELAYS:;
#NOTES:
00000000
00000000
00000000
00000000
,
00000000
00000000
00000000
00000000
,
00000100
00000000
00000000
00000000
00000000
01000000
00000000
10000000
,
00000010
00000000
00000000
00000000
,
10000001
00000000
00000000
00000000
,
00000000
00000000
00000000
00000000
,
11000001
01000000
10000011
00000010
,
01000000
00010000
00000010
00010000
01000000
00010000
00000010
00000000
,
10000011
00000010
11000001
01000000
,
00000010
00010000
01000000
00010000
00000010
00010000
01000000
00000000
,
00000100
00000001
00000000
00000000
00100000
10000000
00000000
00000000
,
00000010
01000000
00100000
00000100
,
00100000
10000000
00000000
00000000
00000100
00000001
00000000
00000000
,
01000000
00000010
00000100
00100000
,
00010100
00000000
11000000
00000000
00000100
00100000
00000010
00000000
,
00110000
00000000
00000011
00000000
00100000
00000100
01000000
00000000
,
00000100
10000000
00000100
00000000
00100000
00000001
00100000
00000000
,
00000010
01000000
00000010
00100000
00100000
00000100
01000000
00000011
,
00000100
01000000
10000100
01000000
,
00100000
00000010
00100001
00000010
,
01000000
00000001
01000000
00000000
00000010
10000000
00000010
00000000
,
00100000
01000000
00000100
00000010
,
00000000
00000010
00000000
00000010
,
00000000
01000000
00000000
01000000
,
00000000
00000100
00000000
00100000
,
00000000
00000100
00000000
00100000
,
00000011
00000000
00000000
00000000
,
11000000
00000000
00000001
00000000
,
00010000
00000000
00000000
00000000
,
10000001
00000000
00000000
00000100
,
00000011
00000010
11000000
01000000
,
00000011
11000000
00000011
00000010
,
11000000
01000000
00000101
10100000
,
00000101
01000000
00000010
01000010
,
00100000
00110100
00000100
00110100
,
01000000
11000011
00000010
11000011
,
00100000
01100000
00000100
00000110
,
01000000
00000000
00000010
00000000
01000000
00010000
01000000
00000000
,
00000101
00000100
10100000
00100000
,
00000101
10100000
00000101
00000100
,
10100000
00100000
00000011
11000000
,
00000011
00000000
00000011
00000000
01000000
00100000
01000000
00000000
,
00000100
00110100
00100000
00110100
,
00000010
11000011
01000000
11000011
,
00000100
00000100
01000000
00000010
,
00010000
10000001
00000000
00000000
00000000
00000000
00000000
00000000
,
10100001
00100000
10000101
00000100
,
00100000
00010000
00000100
00010000
00100000
00010000
00000100
00000000
,
01000000
10000000
00000000
00000000
00000010
00000001
00000000
00000000
,
00100000
00000000
00000100
00000000
01000000
00000000
00000001
00010000
,
10000000
00000000
00000000
00000000
;
#NOTEDATA:;
#STEPSTYPE:ds3ddx-double;
#DESCRIPTION:Dual;
#DIFFICULTY:Medium;
#METER:4;
#RADARVALUES:;
#BPMS:0.000=132.100;
#STOPS:0.000=0.000;
#DELAYS:;
#NOTES:
0000000000000000
0000000000000000
0000000000000000
0000000000000000
,
0000000000000000
0000000000000000
0000000000000000
0000000000000000
,
0000001001000000
0000000000000000
0001100000000000
0000000000010000
,
0001010000000000
0000000000000000
0000000000000000
0000000000000000
,
1000001100000000
0000000000000000
0000000000000000
0000000000000000
,
0010000000000000
0000000000000000
0000000000000000
0000000000000000
0000010000000000
0000000000000000
0000000000000000
0000000000000000
0100000000000000
0000001000000000
0000000000000000
0000000000000000
0100000000000000
0000001000000000
0000000000000000
0000000000000000
,
1100000100000000
0101000000000000
1000001100000000
0001001000000000
,
0000001000000000
0000010000000000
0000000000100000
0000000001000000
,
0000000010000011
0000000000010010
0000000011000001
0000000001010000
,
0000000001000000
0000000000100000
0000010000000000
0000001000000000
,
0010000000000000
1000000000000000
0000000000000000
0000000000000000
0000010000000000
0000000100000000
0000000000000000
0000000000000000
,
0010001000000000
0000000000000000
0100010000000000
0000000000000000
0010000000000000
0000010000000000
0000001100000000
0000000000000000
,
0100000000000000
1000000000000000
0000000000000000
0000000000000000
0000001000000000
0000000100000000
0000000000000000
0000000000000000
,
0010000000000000
0001010000000000
0000000110000000
0000000000000000
,
0000000000110000
0000000000000000
0000000000000000
0000000000000000
0000000000100100
0000000000100100
0000000010000010
0000000000000000
,
0000000011000001
0000000000000000
0000000000000010
0000000000000000
,
0000000000100000
0000000000000100
0000000001000000
0000000000000010
,
0000000000000100
0000000000000010
0000000000100000
0000000001000000
0000010000000000
0000001000000000
0010000000000000
0000000000000000
,
1000001100000000
0000000000000000
0000000000000000
0000000000000000
0010010000000000
0010010000000000
0100000100000000
0000000000000000
,
0001010000000000
0000000000000000
1010000100000000
0000000000000000
,
0000010000000000
0010000000000000
0000001000000000
0100000000000000
,
1100001100000000
0000000000000000
0000010000000000
0011010000000000
,
0000000000000000
0000001000000000
0000000000000000
0000001000000000
,
0000000000000000
0000000001000000
0000000000000000
0000000001000000
,
0000000000000000
0000000000100000
0000000000000000
0000000000000100
,
0000000000000000
0000000000100000
0000000000000000
0000000000000100
,
0000000110000000
0000000000000000
0000000000000000
0000000000000000
,
0000000100000000
0000000000000000
0000000010000000
0000000000000000
,
0000000100000000
0000000000000000
0000000000000000
0000000000000000
,
0000001001000000
0000000000000000
0000000000000000
0001100000011000
,
0000001000010000
0001000001000000
0000001000000000
0000001000000000
,
0001000001000000
0000001000010000
0000000001000000
0000000001000000
,
0000011000000000
0000000000000000
0000000001100000
0000000000000000
,
0000000000000100
0000000000100000
0000000000010100
0000000000000101
,
0000000000100100
0000000011000000
0000000000000010
0000000000000010
,
0000000000100100
0000000000000011
0000000001000000
0000000001000000
,
0000000000000100
0000000010100000
0000000000100000
0000000000000101
,
0000000000000010
0000000000000000
0000000001100000
0000000000000000
0000000001000000
0000001000000000
0100000000000000
0000000000000000
,
0000010100000000
0000010000000000
1010000000000000
0010000000000000
,
0000010000000000
0010000000000000
0000010100000000
0000010000000000
,
0011010000000000
0000000000000000
1100001100000000
0000000000000000
,
0010000000000000
0000000000000000
0001010000000000
0000000000000000
0000001000000000
0000000100000000
0000001000000000
0000000000000000
,
0000000000100000
0000000000000000
0000000000000011
0000000000000011
,
0000000000100000
0000000001000000
0000000000000100
0000000000000010
,
0000000010100001
0000000000000100
0000000001010000
0000000000000010
,
0000000000000001
0000000000010000
0001000000000000
0000000000000000
0000000000000000
0000000000000000
0000000000000000
0000000000000000
,
1100000100000000
0101000000000000
1000001100000000
0001001000000000
,
0100000000000000
0000000000000000
0100000000000000
0000000000000000
0100000000000000
1000000100000000
0100000000000000
0000000000000000
,
0000010000000000
0000000100000000
0000000000000000
0000000000000000
0010000000000000
1000000000000000
0000000000000000
0000000000000000
,
0100000000000000
0010000000000000
0000010000000000
0000000001101000
;
