#TITLE:Sweety;
#SUBTITLE:;
#ARTIST:S#arp;
#TITLETRANSLIT:;
#SUBTITLETRANSLIT:;
#ARTISTTRANSLIT:;
#CREDIT:locuuraa [from 12.mp];
#BANNER:Sweety.png;
#BACKGROUND:Sweety.png;
#LYRICSPATH:;
#CDTITLE:../CDTitles/3DDX.png;
#MUSIC:Sweety.mp3;
#OFFSET:0.442;
#SAMPLESTART:40.000;
#SAMPLELENGTH:10.000;
#DISPLAYBPM:120.0;
#BGCHANGES:;
#NOTEDATA:;
#STEPSTYPE:ds3ddx-single;
#DESCRIPTION:Pretty;
#DIFFICULTY:Easy;
#METER:3;
#RADARVALUES:;
#BPMS:0.000=119.980;
#STOPS:0.000=0.000;
#DELAYS:;
#NOTES:
00000000
00000000
00000000
00000000
,
00000000
00000000
00000000
00000000
,
00000000
00000000
00000000
00000000
,
00000000
00000000
00000000
00000000
,
00000000
00000000
00100000
00000100
,
00100000
00000101
00000000
00000101
,
00000000
01000000
00000000
00000010
,
00000000
01000000
00000010
00000010
,
01000000
00000000
00000100
00100000
,
00000100
10100000
00000000
10100000
,
00000000
00000010
00000000
01000000
,
00000000
00000010
01000000
01000000
,
00000010
00000000
10100000
00000000
,
00000101
00000000
00100000
00000100
,
00000000
00010000
00000000
10000001
,
00000000
00100100
00000000
00100100
,
00000000
00000100
00000000
00100000
,
00000000
00000101
00000000
10100000
,
00000000
00000010
00000000
01000000
,
00000000
10000101
00000000
00100100
,
00000000
00000000
00000000
00100100
,
00000000
00000100
00100000
00000101
,
00000000
01000000
00000000
00000010
,
00000000
00000010
00000000
01000000
,
00000000
00000000
00000000
00100100
,
00000000
00000100
00100000
00000101
,
00000000
10100000
00000000
00000100
,
01000000
00000100
00000000
11000000
,
00000000
00000011
00000000
00100000
,
00000100
11000000
00000000
00000100
,
00100000
00000011
00000000
00010000
,
00000000
10000001
00000000
01000010
,
00000000
00100000
00000100
10100000
,
00000000
00000010
00000000
00000010
,
00000000
01000000
00000000
00000010
,
00000000
00000000
00000000
01000010
,
00000000
00100000
00000100
10100000
,
00000000
00000100
00000000
00100000
,
00000000
00000010
00000000
01000000
,
00000000
01000000
00000000
00000100
,
00000100
10100000
00000000
00000100
,
00100000
00100100
00000000
00000001
,
10000000
00000100
00000000
00100000
,
00000000
00000001
10000000
00000100
,
00000100
00100000
00100000
00000100
,
00000000
00100000
00000000
00000010
,
00000010
01000000
01000000
00000010
,
00000000
00000011
00000000
01000000
,
00000000
11000000
00000000
00000010
,
01000000
00000100
00100000
10000101
;
#NOTEDATA:;
#STEPSTYPE:ds3ddx-single;
#DESCRIPTION:Power;
#DIFFICULTY:Medium;
#METER:3;
#RADARVALUES:;
#BPMS:0.000=119.980;
#STOPS:0.000=0.000;
#DELAYS:;
#NOTES:
00000000
00000000
00000000
00000000
,
00000000
00000000
00000000
00000000
,
00000000
00000000
00000000
00000000
,
00000000
00000000
00000000
00000000
,
00000000
00000000
00000011
01000001
,
00000101
00100001
00010100
00100000
,
00000100
00000000
00100000
00010000
00100000
00010000
00100000
00000000
,
00000100
00000000
00000100
00100000
,
10100000
00000001
00110000
00010100
,
00110000
00100000
01000000
00000100
,
00000010
00100001
00000000
00100001
,
00100001
01000000
00000010
00000100
,
00100000
00000000
00010100
00000010
,
00000100
00110000
01000000
00100000
,
00100100
00000000
00010000
00000000
00000000
00000000
10000001
00010000
,
00000000
00000000
00000100
00000000
00000010
00000000
00100000
00010000
,
00000100
00010000
00000000
00000000
01000000
00000000
00000010
00000000
,
00100000
00000100
00100100
00000100
,
00000100
00000000
01000000
00000000
01000000
00000000
00110000
00000001
,
00000000
00110000
10100001
00110000
,
00110000
00000000
00000000
00010000
,
00100100
00000000
00000101
00000000
10100000
00000000
00010100
00000001
,
00000000
00000100
00100000
00000100
,
00000100
00100000
00100000
00100000
,
00000000
00000100
00000000
00010000
,
01000000
00000101
10100000
00000101
,
00000000
00000000
00010100
00000001
00000000
00000000
00000100
00000000
,
01000000
00000100
00000100
01000000
,
01000000
10000011
00000000
00100000
,
00000100
00000010
00000000
11000000
,
11000001
00000000
00000011
00000000
10000000
00000000
00010000
00000001
,
00011000
10000000
00010000
00000000
00000000
00000000
00010000
00000000
,
00100100
00000000
00000101
00000000
10100000
00000000
00010100
00000001
,
00000000
00100000
00000100
01000000
,
00000000
00000010
00000000
00000010
,
01000010
01000000
00000000
00010000
,
01000000
00000101
10100000
00000101
,
00000000
01000000
01000000
11000001
,
00000010
10000011
01000000
10000101
,
00000000
00000000
10100001
00000000
00000000
00000000
00000100
00100000
,
00000100
00000000
00100000
00000000
10100001
00000000
00000100
01000000
,
00000010
00000000
01000010
00000000
00000000
00000000
00010100
00110000
,
00010100
00100000
10110000
00000100
,
00010101
00000000
00100000
00000010
01000000
00000000
00000010
01000000
,
11000011
00000000
00100000
00000100
00110100
00000000
00100000
01000000
,
00100000
00000100
00100000
01000000
00100000
00000100
00110000
00000000
,
00000100
00000000
00010100
00000000
00100000
00000100
11000000
00000000
,
00100000
00000000
00110000
00000000
00000100
00100000
00000011
00000000
,
10100000
00000000
00000101
00000000
00110000
00000000
00010000
00010000
,
00010000
00000100
00100000
00000100
00100000
00000010
01010000
00000000
;
#NOTEDATA:;
#STEPSTYPE:ds3ddx-double;
#DESCRIPTION:Dual;
#DIFFICULTY:Medium;
#METER:3;
#RADARVALUES:;
#BPMS:0.000=119.980;
#STOPS:0.000=0.000;
#DELAYS:;
#NOTES:
0000000000000000
0000000000000000
0000000000000000
0000000000000000
,
0000000000000000
0000000000000000
0000000000000000
0000000000000000
,
0000000000000000
0000000000000000
0000000000000000
0000000000000000
,
0000000000000000
0000000000000000
0000000000000000
0000000000000000
,
0000000000000000
0000000000000000
0000000001000000
0000000000010100
,
0000000000010100
0000000000110000
0000000000100000
0000010000000000
,
0010000000000000
0000000000000000
0000010000000000
0001000000000000
0000010000000000
0001000000000000
0010000000000000
0000000000000000
,
0000010000000000
0000000000000000
0000010000000000
0010000000000000
,
1010000000000000
0000000100000000
0011000000000000
0001010000000000
,
0011000000000000
0000010000000000
0000000000100000
0000000000000100
,
0000000000100000
0000000000100001
0000000000000000
0000000000100001
,
0000000000100001
0000000001000000
0000000000000010
0000000000000100
,
0000000000100000
0000000000000000
0000000000010100
0000000001000000
,
0000000000110000
0000001000000000
0000000000100000
0000010000000000
,
0000010000100000
0001000000010000
0000000000000000
0001000000010000
,
0000000000000000
0000000000000000
0000010000000000
0000000000000000
0000000000100000
0000000000000000
0000010000000000
0001000000000000
,
0000000000100000
0000000000010000
0000000000000000
0000000000000000
0000010000000000
0000000000000000
0000001000000000
0000000000000000
,
0010000000000000
0000010000000000
0010010000000000
0000010000000000
,
0000010000000000
0000000000000000
0100000000000000
0000000000000000
0100000000000000
0000000000000000
0011000000000000
0000000100000000
,
0000000000000000
0011000000000000
1010000100000000
0011000000000000
,
0011000000000000
0000000000000000
0000000000000000
0001000000000000
,
0010010000000000
0000000000000000
0000010100000000
0000000000000000
1010000000000000
0000000000000000
0001010000000000
0000000100000000
,
0000000000000000
0000010000000000
0000001000000000
0000000000100000
,
0000000000100000
0000000000000010
0000000000000010
0000000000000010
,
0000000000000000
0000000000000100
0000000000000000
0000000000010000
,
0000000001000000
0000000000000101
0000000010100000
0000000000000101
,
0000000000000000
0000000000000000
0000000000010100
0000000000000001
0000000000000000
0000000000000000
0000000000000100
0000000000000000
,
0000000001000000
0000000000000100
0000000000000100
0000000001000000
,
0000000001000000
0000000000101000
0000000000000000
0000010000000000
,
0000001000000000
0100000000000000
0000000000000000
1100000000000000
,
1100000100000000
0000000000000000
0000001110000000
0000000000000000
1000000000000000
0000000000000000
0001000000000000
0000000100000000
,
0001100000000000
1000000000000000
0001000000000000
0000000000000000
0000000000000000
0000000000000000
0001000000000000
0000000000000000
,
0010010000000000
0000010100000000
1010000000000000
0000010100000000
,
0000000000000000
0010000000000000
0000001000000000
0000010000000000
,
0000000000000000
0000000001000000
0000000000000000
0000000000100000
,
0000000000100100
0000000000000100
0000000000000000
0000000000010000
,
0000000001000000
0000000000000101
0000000010100000
0000000000000101
,
0000000000000000
0000000000000100
0000000000000010
0000000000001010
,
0000000000100000
0000000000101000
0000001000000000
0000101000000000
,
0000000000000000
0000000000000000
0010100000000000
0000000000000000
0000000000000000
0000000000000000
0010000000000000
0100000000000000
,
0000001000000000
0000000000000000
0010000000000000
0000000000000000
1010000100000000
0000000000000000
0000010000000000
0100000000000000
,
0000001000000000
0000000000000000
0100001000000000
0000000000000000
0000000000000000
0000000000000000
0001010000000000
0011000000000000
,
0001010000000000
0010000000000000
1011000000000000
0000010000000000
,
0001010100000000
0000000000000000
0000010000000000
0000001000000000
0000000001000000
0000000000000000
0000000001000000
0000010000000000
,
0001010000100000
0000000000000000
0000001000000000
0000000000100000
0000010000110000
0000000000000000
0000000001000000
0000001000000000
,
0000010000000000
0000001000000000
0000000001000000
0000000000100000
0000000001000000
0000001000000000
0000000000110000
0000000000000000
,
0000000000100000
0000000000000000
0000000000110000
0000000000000000
0000000000100000
0000000001000000
0000000000000011
0000000000000000
,
0000000000100000
0000000000000000
0000000000110000
0000000000000000
0000000000000100
0000000000100000
0000000000000011
0000000000000000
,
0000000010100000
0000000000000000
0000000000000101
0000000000000000
0000000011000000
0000000000000000
0000000010000000
0000000010000000
,
0000000010000000
0000000000100000
0000001000000000
0000000000100000
0000001000000000
0000010000000000
0101100000000000
0000000000000000
;
