#TITLE:Steal Away;
#SUBTITLE:;
#ARTIST:박지윤 (Park Ji-yoon);
#TITLETRANSLIT:;
#SUBTITLETRANSLIT:;
#ARTISTTRANSLIT:;
#CREDIT:locuuraa [from 19.mp];
#BANNER:Steal Away.png;
#BACKGROUND:Steal Away.png;
#LYRICSPATH:;
#CDTITLE:../CDTitles/3DDX.png;
#MUSIC:Steal Away.mp3;
#OFFSET:-0.088;
#SAMPLESTART:26.500;
#SAMPLELENGTH:10.000;
#DISPLAYBPM:105.0;
#BGCHANGES:;
#NOTEDATA:;
#STEPSTYPE:ds3ddx-single;
#DESCRIPTION:Pretty;
#DIFFICULTY:Easy;
#METER:3;
#RADARVALUES:;
#BPMS:0.000=105.000;
#STOPS:0.000=0.000;
#DELAYS:;
#NOTES:
00000000
00000000
00000000
00000000
,
00000000
00000000
00000000
00000000
,
00110000
00000000
00010100
00000000
,
00100000
00100000
00000100
00000100
,
01000000
00000000
00000011
00000000
,
00000010
00000000
11000000
00000000
,
00000100
00000000
01000000
00000000
,
00100000
00000100
00000010
01000000
,
10000101
00000000
00000010
00000000
,
00110000
00000000
01000000
00000000
,
00010100
00000000
00000100
00000100
,
00110000
00000000
00100000
00100000
,
00010100
00000000
00100000
00000000
,
01000000
01000000
11000000
00000000
00000010
00000010
00000011
00000000
,
01000000
01000000
00000010
01000000
,
00000010
00000010
00100000
11000000
,
00000000
01010000
00000000
10000001
,
00000000
00010010
00000000
01010000
,
00000000
00000100
00000000
01000000
,
00000000
00000010
00000000
00000010
,
00100000
00100000
00100000
01000010
,
00000100
00000100
00000100
00100100
,
01000001
00000000
10000010
00000000
,
00100000
00000000
00000100
00000000
,
01000000
00000010
00000010
01000000
,
00000100
00000011
00100000
11000000
,
00000010
01000000
01000000
00000010
,
00100000
00000000
00000100
00000000
,
00100000
00000100
00100000
10000100
,
01000000
00000010
01000000
10000010
,
01000000
01000000
01000000
00000100
,
00100000
00000010
00000010
00000010
,
00100000
00100000
00000100
10000001
,
01000000
01000000
00000010
10000001
,
00100000
00000100
00100100
10000001
,
01000000
00000010
00100000
00000100
,
01000000
01010000
00000010
00010010
,
00100000
10100000
00000100
00000101
,
01000000
00000000
00000100
00000000
01000000
01000000
01000000
00000000
,
00000100
00100000
00000010
11000000
;
#NOTEDATA:;
#STEPSTYPE:ds3ddx-single;
#DESCRIPTION:Power;
#DIFFICULTY:Medium;
#METER:4;
#RADARVALUES:;
#BPMS:0.000=105.000;
#STOPS:0.000=0.000;
#DELAYS:;
#NOTES:
00000000
00000000
00000000
00000000
,
00000000
00000000
00000000
00000000
,
00110000
00000000
00010100
00000000
,
01000000
00000000
01000000
00000000
00000010
01000000
00000011
00000000
,
01000000
00000000
01000000
00000000
00000011
01000000
00000010
00000000
,
00000010
00000000
00000010
00000000
11000000
00000010
01000000
00000000
,
00010100
00000011
00000011
10100000
,
00000100
00000010
01000000
01000000
00000100
00100000
11000001
00000000
,
00010100
00110000
01000000
00000010
,
00010100
00110000
01000000
00000010
,
00010100
00000000
00010100
00010100
,
00110000
00000000
00110000
00110000
,
00000100
00000010
00100000
00000000
00100000
01000000
00000100
00000000
,
00000100
00000100
11000000
00000000
00000010
01000000
00000011
00000000
,
00000010
00000010
01000000
00000010
,
01000000
01000000
00000100
00000100
00100000
00000010
11000001
00000000
,
00100100
00100100
01010000
00000000
00100100
00100100
00010010
00000000
,
00100100
00100100
11000000
00000000
00100100
00100100
00000011
00000000
,
01000000
00000000
00000100
00000000
01000100
00010000
01000100
00000000
,
00000010
00000000
00100000
00000000
00100010
00010000
00100010
00000000
,
00100000
00100000
00100000
00100000
,
00000100
00000100
00000100
00000100
,
01000000
00000000
00000010
00000000
,
00000010
00000100
00100000
01000000
00000010
01000000
01000000
00000000
,
00010100
00000011
00110000
11000000
,
00000100
00000010
00100000
01000000
,
00000010
00000010
01000000
01000000
,
00000010
00000010
01000000
01000000
,
00000010
00000100
00000010
00011100
,
00100000
01000000
00100000
01010000
,
00000010
00000010
00000010
00000000
00000010
00000010
00000010
00000000
,
00000100
00000000
00000100
00000000
00000010
01000000
10000010
00000000
,
00100000
00000000
00100000
00000000
00000100
01000000
00000010
00000000
,
00000100
00000000
00100000
00000000
00000010
00100000
00000100
00000000
,
00100000
01000000
00010010
00000000
00000100
00000010
01000001
00000000
,
00000100
00100000
01000000
00000010
00000100
00100000
00000010
00000000
,
11000011
00000000
00000010
00000000
00100000
00000100
00100000
00000000
,
00000100
00010000
01000000
00000000
00000100
00010000
01000000
00000000
,
01000000
00100000
00000100
01000000
01000000
00000010
00000100
00000000
,
00000010
00000100
01000000
00000111
;
#NOTEDATA:;
#STEPSTYPE:ds3ddx-double;
#DESCRIPTION:Dual;
#DIFFICULTY:Medium;
#METER:4;
#RADARVALUES:;
#BPMS:0.000=105.000;
#STOPS:0.000=0.000;
#DELAYS:;
#NOTES:
0000000000000000
0000000000000000
0000000000000000
0000000000000000
,
0000000000000000
0000000000000000
0000000000000000
0000000000000000
,
0001101000000000
0000000000000000
0000000000110000
0000000000000000
,
0000001000000000
0000000000000000
0000001000000000
0000000000000000
0000000000100000
0000000001000000
0000000000000011
0000000000000000
,
0000000001000000
0000000000000000
0000000001000000
0000000000000000
0000000000000011
0000000001000000
0000000000000010
0000000000000000
,
0000001000000000
0000000000000000
0000001000000000
0000000000000000
1100000000000000
0000001000000000
0100000000000000
0000000000000000
,
0000010000000000
0000001000000000
0000000000100000
0000000001000000
,
0000000000000100
0000000000000010
0000000001000000
0000000001000000
0000000000000100
0000000000100000
0000000011000001
0000000000000000
,
0000010000000000
0000001000000000
0000000001000000
0000000000100000
,
0000010000000000
0000001000000000
0000000001000000
0000000000100000
,
0000000000110000
0000000000000000
0000000000110000
0000000000110000
,
0001101000000000
0000000000000000
0001101000000000
0001101000000000
,
0000010000000000
0000001000000000
0010000000000000
0000000000000000
0010000000000000
0100000000000000
0000010000000000
0000000000000000
,
0000010000000000
0000010000000000
1100000000000000
0000000000000000
0000001000000000
0100000000000000
0000001100000000
0000000000000000
,
0000000001000000
0000000001000000
0000000000000010
0000000001000000
,
0000000000100000
0000000000100000
0000010000000000
0000010000000000
0000000000100000
0000001000000000
0000000001010000
0000000000000000
,
0000010000100000
0000010000100000
0001001000000000
0000000000000000
0000010000100000
0000010000100000
0000000001010000
0000000000000000
,
0000010000100000
0000010000100000
0000000001010000
0000000000000000
0000010000100000
0000010000100000
0001001000000000
0000000000000000
,
0100000000000000
0000000000000000
0000010000000000
0000000000000000
0100010000000000
0001000000000000
0100010000000000
0000000000000000
,
0000001000000000
0000000000000000
0010000000000000
0000000000000000
0010001000000000
0001000000000000
0010001000000000
0000000000000000
,
0000000000100000
0000000000100000
0000000000100000
0000000000100000
,
0000010000000000
0000010000000000
0000010000000000
0000010000000000
,
0100000000000000
0000000000000000
0000001000000000
0000000000000000
,
0000000001000000
0000000000100000
0000010000000000
0000001000000000
0000000001000000
0000001000000000
0000001000000000
0000000000000000
,
0011000000000000
1100000000000000
0001010000000000
0000001100000000
,
0010000000000000
0100000000000000
0000010000000000
0000001000000000
,
0000010000000000
0000010000000000
0000000001000000
0000000001000000
,
0000001000000000
0000001000000000
0000000001000000
0000000001000000
,
0000000001000000
0000000000100000
0000000001000000
0000000000111000
,
0000010000000000
0000001000000000
0000010000000000
0001001000000000
,
0000000001000000
0000000001000000
0000000001000000
0000000000000000
0000000001000000
0000000001000000
0000000001000000
0000000000000000
,
0000010000000000
0000000000000000
0000010000000000
0000000000000000
0100000000000000
0000001000000000
0100000100000000
0000000000000000
,
0010000000000000
0000000000000000
0010000000000000
0000000000000000
0000010000000000
0100000000000000
0000001000000000
0000000000000000
,
0000010000000000
0000000000000000
0000000000100000
0000000000000000
0000000001000000
0000000000000100
0000000000100000
0000000000000000
,
0000000000000100
0000000000000010
0000000001010000
0000000000000000
0000000000100000
0000000001000000
0000000010000010
0000000000000000
,
0000000000100000
0000010000000000
0010000000000000
0100000000000000
0000001000000000
0010000000000000
0000001000000000
0000000000000000
,
1100001100000000
0000000000000000
0000001000000000
0000000000000000
0000010000000000
0000000000100000
0000010000000000
0000000000000000
,
0000000000000100
0000000000010000
0000000001000000
0000000000000000
0000000000000100
0000000000010000
0000000001000000
0000000000000000
,
0000000001000000
0000000000100000
0000000000000100
0000000001000000
0000000001000000
0000000000000010
0000000000000100
0000000000000000
,
0000000000100000
0000001000000000
0000010000000000
1101000000000000
;
