#TITLE:하늘색풍선;
#SUBTITLE:Sky Blue Balloon;
#ARTIST:god;
#TITLETRANSLIT:;
#SUBTITLETRANSLIT:;
#ARTISTTRANSLIT:;
#CREDIT:locuuraa [from 22.mp];
#BANNER:Sky Blue Balloon.png;
#BACKGROUND:Sky Blue Balloon.png;
#LYRICSPATH:;
#CDTITLE:../CDTitles/3DDX.png;
#MUSIC:Sky Blue Balloon.mp3;
#OFFSET:-0.145;
#SAMPLESTART:12.500;
#SAMPLELENGTH:10.000;
#DISPLAYBPM:120.0;
#BGCHANGES:;
#NOTEDATA:;
#STEPSTYPE:ds3ddx-single;
#DESCRIPTION:Pretty;
#DIFFICULTY:Easy;
#METER:4;
#RADARVALUES:;
#BPMS:0.000=120.070,26.000=120.080;
#STOPS:0.000=0.000;
#DELAYS:;
#NOTES:
00000000
00000000
00000000
00000000
,
00000000
00000000
00000000
00000000
,
00000000
00000000
00000000
00000000
,
00000000
00000000
00000000
00000000
,
00000000
00000000
00000000
00000000
,
00000000
00000000
00000000
00000000
,
00000000
00000000
10000101
00000000
,
00000100
00000000
01000000
00000000
,
01000000
00000000
00000100
00100000
,
00000100
00000000
01000000
00000010
,
01000000
00000000
00010100
00000000
,
00110000
00000000
00000100
00000010
,
00000100
00000000
01000000
00000010
,
01000000
00000000
01000010
00000000
,
00000100
00100000
00000100
00010000
,
10000001
00000000
00100000
00100000
,
00000100
00000100
11000000
00000000
,
00000011
00000000
11000000
00000000
,
00000100
00000100
00110000
00000000
,
00100000
00000000
00000010
00000000
,
11000000
00000000
00000011
00000000
,
00100000
00000100
00100000
00000000
,
00100100
00000000
10000101
00000000
,
10100001
00000000
00000000
00000000
00000010
00000100
00000010
00000000
,
01000000
00000000
01000000
00000000
,
00000011
00000000
11000000
00000000
,
01000010
00000000
00100000
00000100
,
00110000
00000000
00000100
00100000
,
00010100
00000000
01000000
00000000
,
11000000
00000000
00000010
00000000
,
00000011
00000000
10100001
00000000
,
00000100
00000000
01000000
00000010
,
01000000
00000000
00000100
00100000
,
00000100
00000000
00000010
01000000
,
00000010
00000000
10100000
00000000
,
00000101
00000000
00100000
01000000
,
00100000
00000000
00000010
01000000
,
00000010
00000000
01000000
00100000
,
01000000
00000000
00000011
00000000
,
11000000
00000000
01000010
01000010
,
01000010
00000000
01000000
00000000
,
00000010
00000000
00000010
01000000
,
00000010
00000010
01000001
00000000
,
10000010
00000000
00000100
00100000
,
00010100
00000000
01000001
00000000
,
10000010
00000000
00100000
00000100
,
01000000
00000010
11000010
00000000
;
#NOTEDATA:;
#STEPSTYPE:ds3ddx-single;
#DESCRIPTION:Power;
#DIFFICULTY:Medium;
#METER:3;
#RADARVALUES:;
#BPMS:0.000=120.070,26.000=120.080;
#STOPS:0.000=0.000;
#DELAYS:;
#NOTES:
00000000
00000000
00000000
00000000
,
00000000
00000000
00000000
00000000
,
00000000
00000000
00000000
00000000
,
00000000
00000000
00000000
00000000
,
00000000
00000000
00000000
00000000
,
00000000
00000000
00000000
00000000
,
00000000
00000000
10100101
01000000
,
00000100
00000010
01000000
00000010
,
00110000
00000000
00000100
00000101
,
00100000
10100000
00000010
01000000
,
00000010
00000000
00110000
00000000
,
10000101
00000000
00100000
01000000
,
00100000
00000000
00000100
00100000
,
00100000
00000100
00000010
01000000
,
10100000
00110000
00100001
01000010
,
10000001
00000000
00000000
00010000
00010000
00000001
10000000
00000000
,
00000010
00000000
01000010
00000000
00100000
00000000
00100000
00000100
,
00100000
00000000
00000010
00000000
00000010
01000000
00000010
00000000
,
00110000
10100001
00000100
00000000
,
00000100
00100000
01000001
00000000
,
01000000
00000010
01000000
00000000
00000100
00100000
00000010
00000000
,
00100000
10100000
00000010
01000010
,
00100000
00000100
01000000
00000000
00000011
00000000
00000000
00000000
,
11000000
00000000
00000000
00000000
00000011
01000000
00010100
00000000
,
00100000
00000100
00100100
00000000
00000010
00000000
00000000
00000000
,
00100000
00100000
00000010
01000000
,
00000010
00010000
01000010
00000000
10100001
00000000
00000000
00000000
,
00100000
00000100
00100000
00000000
10000011
00000000
00000000
00000000
,
00000010
01000000
00000010
00000000
00100000
00000000
01000000
00000000
,
00100000
01000000
00100000
00000000
00000100
00000100
00100000
00000000
,
00000010
10000001
00000010
00000000
00100000
00000000
00000010
00000000
,
00100000
00000010
01000000
00000000
00000100
00000000
01000000
00000000
,
00000100
01000000
00000010
00000000
11000011
00000000
00000000
00000000
,
01010010
00000000
00000101
00110000
,
00000010
00000010
00100000
01000000
,
00000100
00000000
00000010
00000000
01000000
00000000
01000000
00000010
,
01000000
01000010
00000100
00100100
,
01000000
01000010
10000100
00000101
,
10000100
00000000
00000000
00000000
01000000
00000000
00000010
00000001
,
01000000
10000000
00000010
00000000
00110000
00000000
00110000
00000000
,
10100001
00100100
00000010
01000000
,
01000000
00010000
01000000
00000000
00000100
00000000
00100000
00000000
,
00000100
00000000
00000000
00000000
01000000
00000000
00000010
00000001
,
01000000
10000000
00000010
00000000
00110000
00000000
00110000
00000000
,
10100001
00100100
00000010
01000000
,
01000000
00010000
01000000
00000000
00000100
00000000
00100000
00000000
,
01000000
00000010
01100000
00000000
;
#NOTEDATA:;
#STEPSTYPE:ds3ddx-double;
#DESCRIPTION:Dual;
#DIFFICULTY:Medium;
#METER:3;
#RADARVALUES:;
#BPMS:0.000=120.070,26.000=120.080;
#STOPS:0.000=0.000;
#DELAYS:;
#NOTES:
0000000000000000
0000000000000000
0000000000000000
0000000000000000
,
0000000000000000
0000000000000000
0000000000000000
0000000000000000
,
0000000000000000
0000000000000000
0000000000000000
0000000000000000
,
0000000000000000
0000000000000000
0000000000000000
0000000000000000
,
0000000000000000
0000000000000000
0000000000000000
0000000000000000
,
0000000000000000
0000000000000000
0000000000000000
0000000000000000
,
0000000000000000
0000000000000000
0000000010100101
0000000000000010
,
0000010000000000
0000000000000000
0000000000100000
0000000000000000
0010000000000000
0000000000000000
0011000000000000
0000001000000000
,
0100000000000000
0100001000000000
0000000000000000
1010000000000000
,
0000000000000000
1010000000000000
0000001000000000
0100000000000000
,
0000001000000000
0000000000000000
1010010100000000
0100000000000000
,
0000001000000000
0100000000000000
0000000001000000
0000001000000000
,
0000000000000010
0000000000000000
0000000000100000
0000000010100000
,
0000000000000100
0000000000000101
0000000000000100
0000000000100000
,
0000000001010000
0000000011000000
0000000001000001
0000010000100000
,
0001000000010000
0000000000000000
0000000000000000
0000000000010000
0001000000000000
0000000001000000
0000001000000000
0000000000000000
,
0000000001000000
0000001001000000
0000010000000000
0000000000000000
,
0000010000000000
0000000001000000
0000001000000000
0000000000000000
0000000000100000
0000000000000000
0000000000000000
0000000000000000
,
0000000000100000
0000001000000000
0000000001000000
0000000000000000
0100000000000000
0000000000000000
0000000000000000
0000000000000000
,
0000001100000000
1100000000000000
0000000000000000
0010000000000000
,
0010000000000000
0000010100000000
0010000000000000
0000000000000000
0000001000000000
0000000000000000
0000000000000000
0000000000000000
,
0010000000000000
0100000000000000
0100000000000000
0100001000000000
,
0000010000000000
1000000000000000
0000010000000000
0000000000000000
0000001000000000
0000000000000000
0000000000000000
0000000000000000
,
0000000000000010
0000000000000000
0000000000000000
0000000000010000
0000000001000000
0000000000010000
0000000001000000
0000000000000000
,
0000000000000010
0000000001000010
0000000010100001
0000000000000000
,
0000000000100000
0000000000100000
0000000000000100
0000000000000100
,
0000000001000000
0000000000010000
0000000001000010
0000000000000000
0000000000100000
0000000000000000
0000000000000000
0000000000000000
,
0000000000100000
0000000000000100
0000000001000000
0000000000000000
0000010000000000
0000000000000000
0000000000000000
0000000000000000
,
0000010000000000
0000000000100000
0000001000000000
0000000000000000
0010000000000000
0000000000000000
0000010100000000
0000000000000000
,
0100000000000000
0000000000000000
0100000000000000
0000001000000000
0100000000000000
0000000000000000
0000010000000000
0000000000000000
,
0000010100000000
0001000000000000
0000010100000000
0000000000000000
0010000000000000
0000000000000000
0100000000000000
0000000000000000
,
1010010100000000
0000000000000000
0010000000000000
0000010000000000
,
0010000000000000
0000000000000000
0000000000000000
0000001100000000
,
0000000000000000
1100000000000000
0000010000000000
0000000001000000
,
0000000000000010
0000000000000000
0000000000110000
0000000000100100
,
0000000011000001
0000000001000010
0000000000000100
0000000000000100
,
0000000000000100
0000000000000000
0000000000100000
0000000001000000
,
0000000000000100
0000000000000010
0000000000100000
0000000000000100
,
0000000000100000
0000000000000000
0000000000000000
0000000000000000
0000000001000000
0000000000000000
0000000000100000
0000000000010000
,
0000010000000000
0001000000000000
0000000001000000
0000000000000000
0000010000000000
0000000000000000
0000010000000000
0000000000000000
,
0000000000100000
0000010000100000
0000000000000100
0000000000100000
,
0000000000000100
0000000010000001
0000000000000100
0000000000000000
0000000000000100
0000000000000000
0000000000100000
0000000000000000
,
0000000001000000
0000000000000000
0000000000000010
0000000000000000
0000000001000000
0000000000000000
0000001000000000
0001100000000000
,
0000000001000000
0000000000011000
0000001000000000
0000000000000000
0000000001000000
0000000000000000
0000000001000000
0000000000000000
,
0000001000000000
0000001001000000
0000000000000100
0000000000100000
,
0000000000000100
0000000000010000
0000000000000010
0000000000000000
0000000000110000
0000000000000000
0000000000110000
0000000000000000
,
0000000010100001
0000000000000100
0001100001000000
0000000000000000
;
