#TITLE:Run to U;
#SUBTITLE:;
#ARTIST:디제이덕 (DJ DOC);
#TITLETRANSLIT:;
#SUBTITLETRANSLIT:;
#ARTISTTRANSLIT:;
#CREDIT:locuuraa [from 35.mp];
#BANNER:Run to U.png;
#BACKGROUND:Run to U.png;
#LYRICSPATH:;
#CDTITLE:../CDTitles/3DDX.png;
#MUSIC:Run to U.mp3;
#OFFSET:0.010;
#SAMPLESTART:30.000;
#SAMPLELENGTH:10.000;
#DISPLAYBPM:131.0;
#BGCHANGES:;
#NOTEDATA:;
#STEPSTYPE:ds3ddx-single;
#DESCRIPTION:Pretty;
#DIFFICULTY:Easy;
#METER:5;
#RADARVALUES:;
#BPMS:0.000=132.080;
#STOPS:0.000=0.000;
#DELAYS:;
#NOTES:
00000000
00000000
00000000
00000000
,
00000000
00000000
00000000
00000000
,
00000000
00000000
00000000
00000000
,
00110000
00000000
00110000
00000000
,
00110000
00110000
00110000
00110000
,
01000010
01000010
01000010
00000000
,
00100100
00100100
00100100
00000000
,
00000010
00000000
01000000
00000000
,
01000010
01000010
00100100
00100100
,
01000000
00000000
00000010
00000000
,
11000000
00000000
11000000
00000000
,
00100000
00000100
01000000
00000010
,
00110000
00000000
00010100
00000000
,
00000010
00000010
01000000
01000000
,
00000100
00000010
00100000
01000000
,
00000100
00000100
00100000
00100000
,
00000100
00000000
01000000
00000000
,
00000100
10100000
00000100
00000100
,
00100000
00000101
00100000
00100000
,
00000010
11000000
00000010
00000010
,
01000000
00000011
01000000
01000000
,
00000100
00100000
00000010
01000000
,
00000010
00000000
01000000
00000000
,
00110000
00000000
00110000
00000000
,
00110000
00110000
00110000
00110000
,
00000100
00000001
00100000
10000000
,
00000010
00000001
01000000
10000000
,
00000100
00000000
00100000
00000000
,
10000010
00000000
00000000
00000000
,
00000100
00100000
01000000
00000010
,
00000000
00000010
00000000
01000000
,
10000101
00000000
00100000
00000000
,
00000001
00010000
10000000
10000000
,
00000100
00000001
00100000
10000000
,
00000010
00000001
01000000
10000000
,
00000100
00000000
00100000
00000000
,
00000010
00000000
00000000
00000000
,
00010000
00000010
00010000
01000000
,
00000010
01000000
00000010
01000000
,
10000001
00000000
00000000
00000000
,
01000010
00000000
00000000
00000000
,
00010100
00000000
00000000
00000000
,
00110000
00000000
00000000
00000000
,
00010100
00000000
00000000
00000000
,
01000010
00000000
00000000
00000000
,
00100010
00100010
00100010
00000000
,
01000010
00000000
01000010
00000000
,
01000100
01000100
01000100
00000000
,
00100100
00100100
00100100
00100100
,
10000001
00000000
00000000
00000000
;
#NOTEDATA:;
#STEPSTYPE:ds3ddx-single;
#DESCRIPTION:Power;
#DIFFICULTY:Medium;
#METER:5;
#RADARVALUES:;
#BPMS:0.000=132.080;
#STOPS:0.000=0.000;
#DELAYS:;
#NOTES:
00000000
00000000
00000000
00000000
,
00000000
00000000
00000000
00000000
,
00000000
00000000
00000000
00000000
,
00110000
00000000
00110000
00000000
,
00110000
00110000
00110000
00110000
,
01000000
00000010
00000000
00000000
01000000
00000010
00000000
00000000
01000000
00000010
00000000
00000000
01000000
00000010
00000000
00000000
,
00000100
00100000
00000000
00000000
00000100
00100000
00000000
00000000
00000100
00100000
00000000
00000000
00000100
00100000
00000000
00000000
,
00000000
00000010
00000000
01000000
,
01000010
01000000
00100000
00100100
,
00000100
00000010
01000000
00100000
,
00000010
01000000
00000010
01000000
,
00010000
00000001
00000000
00000000
00000010
00000000
00000000
00000000
00010000
10000000
00000000
00000000
01000000
00000000
00000000
00000000
,
00010000
00000001
00000000
00000000
00000010
00000000
00000000
00000000
00010000
10000000
00000000
00000000
01000000
00000000
00000000
00000000
,
00000100
00000001
01000000
10000000
,
01100000
00000000
01000000
01000000
,
00100000
01000000
00000000
00000000
00100000
01000000
00000000
00000000
00100000
01000000
00000000
00000000
00100000
01000000
00000000
00000000
,
01100000
00000000
10000000
10000000
,
00000010
01000000
00000010
00000010
,
01000000
00000010
01000000
01000000
,
00010000
00000001
00011000
10000000
,
00010000
00000001
00011000
10000000
,
00000010
00000010
01000000
01000000
,
00100000
01000000
00000010
00000100
,
00110000
00000000
00110000
00000000
,
00110000
00110000
00110000
00110000
,
00100000
00000010
00000100
01000000
,
00100000
00000010
00000100
01000000
,
00100000
00000100
00000010
00000000
,
00100000
00000100
01000000
00000000
,
00010100
10000011
00110000
11000001
,
00010100
10000011
00000100
00000000
,
01000000
00000000
00000010
00000000
,
01000011
00010000
10000000
10000000
,
00100000
00000010
00000100
01000000
,
00100000
00000010
00000100
01000000
,
00010100
10000011
00110000
11000001
,
00000010
00000001
00000000
00000000
,
10000100
10000100
10000100
10000100
,
01000001
10000010
01000001
10000010
,
01000010
00000000
00000000
00000000
,
01101000
00000000
00000000
00000000
,
00010100
00000000
00000000
00000000
,
00110000
00000000
00000000
00000000
,
00010100
00000000
00000000
00000000
,
00001110
00000000
00000000
00000000
,
00100000
00000010
00000000
00000000
00100000
00000010
00000000
00000000
00100000
00000010
00000000
00000000
00100000
00000010
00000000
00000000
,
01000010
00000000
01000010
00000000
,
00000100
01000000
00000000
00000000
00000100
01000000
00000000
00000000
00000100
01000000
00000000
00000000
00000100
01000000
00000000
00000000
,
00110100
00100100
00100100
00100100
,
10000001
00000000
00000000
00000000
;
#NOTEDATA:;
#STEPSTYPE:ds3ddx-double;
#DESCRIPTION:Dual;
#DIFFICULTY:Medium;
#METER:5;
#RADARVALUES:;
#BPMS:0.000=132.080;
#STOPS:0.000=0.000;
#DELAYS:;
#NOTES:
0000000000000000
0000000000000000
0000000000000000
0000000000000000
,
0000000000000000
0000000000000000
0000000000000000
0000000000000000
,
0000000000000000
0000000000000000
0000000000000000
0000000000000000
,
0011000000000000
0000000000000000
0011000000000000
0000000000000000
,
0011000000000000
0011000000000000
0011000000000000
0011000000000000
,
0000001000000000
0000010000000000
0000000000000000
0000000000000000
0000001000000000
0000010000000000
0000000000000000
0000000000000000
0000001000000000
0000010000000000
0000000000000000
0000000000000000
0000001000000000
0000010000000000
0000000000000000
0000000000000000
,
0000000001100000
0000000000000000
0000000001100000
0000000000000000
,
0000001000000000
0100000000000000
0000010000000000
0010000000000000
,
0100001000000000
0000001000000000
0000000000100000
0000000000100100
,
0000000000000100
0000000000000010
0000000001000000
0000010000000000
,
0000001000000000
0000000000100000
0000001000000000
0000000001000000
,
0000000000010000
0000000010000000
0000000000000000
0000000000000000
0000000001000000
0000000000000000
0000000000000000
0000000000000000
0000000000010000
0000000000000001
0000000000000000
0000000000000000
0000000000000010
0000000000000000
0000000000000000
0000000000000000
,
0000000000010000
0000000010000000
0000000000000000
0000000000000000
0000000001000000
0000000000000000
0000000000000000
0000000000000000
0000000000010000
0000000000000001
0000000000000000
0000000000000000
0000000000000010
0000000000000000
0000000000000000
0000000000000000
,
0000000000000100
0000000000000001
0000000001000000
0000000000000000
,
0000011000000000
0000000000000000
0100000000000000
0100000000000000
,
0010000000000000
0100000000000000
0000000000000000
0000000000000000
0010000000000000
0100000000000000
0000000000000000
0000000000000000
0010000000000000
0100000000000000
0000000000000000
0000000000000000
0010000000000000
0100000000000000
0000000000000000
0000000000000000
,
0110000000000000
0000000000000000
0100000000000000
0000001000000000
,
0000000001000000
0000000000000010
0000000001000000
0000000001000000
,
0000000000000010
0000000001000000
0000001000000000
0100000000000000
,
0001000000000000
0000000100000000
0001100000000000
1000000000000000
,
0001000000000000
0000000100000000
0001100000000000
1000000000000000
,
0000001000000000
0000001000000000
0000000001000000
0000000001000000
,
0000000000100000
0000000000100000
0000000001000000
0000000001000000
,
0000000011000000
0000000000000000
0000000011000000
0000000000000000
,
0000000011000000
0000000011000000
0000000011000000
0000000011000000
,
0000000000100000
0000001000000000
0000010000000000
0000000001000000
,
0000000000100000
0000001000000000
0000010000000000
0000000001000000
,
0000000000100000
0000000000000100
0000000000000010
0000000000000000
,
0000000000100000
0000010000000000
0100000000000000
0000000000000000
,
0001010000000000
1000001100000000
0011000000000000
1100000100000000
,
0001010000000000
1000001100000000
0000010000000000
0000000000000000
,
0000000001000000
0000000000000000
0000001000000000
0000000000000000
,
0000001001000000
0000000000010000
0000000000000001
0000000000000001
,
0000000000100000
0000001000000000
0000010000000000
0000000001000000
,
0000000000100000
0000001000000000
0000010000000000
0000000001000000
,
0000000000110000
0000000011000001
0000000000010100
0000000010000011
,
0000000001000000
0000000010000000
0000000000000000
0000000000000000
,
0000010000100000
0010010000000000
0000010000100000
0000001001000000
,
0000000001000000
0000001000000000
0000000001000000
0000001000000000
,
0000001001000000
0000000000000000
0000000000000000
0000000000000000
,
0110100000000000
0000000000000000
0000000000000000
0000000000000000
,
0000010001000000
0000000000000000
0000000000000000
0000000000000000
,
0000000000000110
0000000000000000
0000000000000000
0000000000000000
,
0000001000100000
0000000000000000
0000000000000000
0000000000000000
,
0000111000000000
0000000000000000
0000000000000000
0000000000000000
,
0000010000000000
0000000001000000
0000000000000000
0000000000000000
0000010000000000
0000000001000000
0000000000000000
0000000000000000
0000010000000000
0000000001000000
0000000000000000
0000000000000000
0000010000000000
0000000001000000
0000000000000000
0000000000000000
,
0000001001000000
0000000000000000
0000001001000000
0000000000000000
,
0000000000100000
0000001000000000
0000000000000000
0000000000000000
0000000000100000
0000001000000000
0000000000000000
0000000000000000
0000000000100000
0000001000000000
0000000000000000
0000000000000000
0000000000100000
0000001000000000
0000000000000000
0000000000000000
,
0000011000000000
0000011000000000
0000011000000000
0000011000000000
,
0100100000000000
0000000000000000
0000000000000000
0000000000000000
;
