#TITLE:Paint it Black;
#SUBTITLE:;
#ARTIST:甘い罠 (Amai Wana);
#TITLETRANSLIT:;
#SUBTITLETRANSLIT:;
#ARTISTTRANSLIT:;
#CREDIT:locuuraa [from 68.mp];
#BANNER:Paint it Black.png;
#BACKGROUND:Paint it Black.png;
#LYRICSPATH:;
#CDTITLE:../CDTitles/3DDX.png;
#MUSIC:Paint it Black.mp3;
#OFFSET:0.002;
#SAMPLESTART:25.000;
#SAMPLELENGTH:10.000;
#DISPLAYBPM:117.0;
#BGCHANGES:;
#NOTEDATA:;
#STEPSTYPE:ds3ddx-single;
#DESCRIPTION:Pretty;
#DIFFICULTY:Easy;
#METER:6;
#RADARVALUES:;
#BPMS:0.000=117.015;
#STOPS:0.000=0.000;
#DELAYS:;
#NOTES:
00000000
00000000
00000000
00000000
,
00000000
00000000
00000000
00000000
,
00000000
00000000
00000000
00000000
,
00000000
00000000
00000000
00000000
,
00000000
00000010
00000000
00000000
,
00000000
01000000
00000000
00000000
,
00000000
00000010
00000000
00000000
,
00000000
00000010
00100000
00000010
,
00000010
00000000
00100000
00000000
01000100
00000000
10000000
00010000
,
10000000
00000000
00000100
00000000
00100010
00000000
00000001
00010000
,
00000001
00100000
01000010
00000010
,
01000000
00000100
00000000
00100000
,
00000000
00000000
00000010
00000000
00100000
00000000
00000010
00100000
,
00000010
00000000
01000000
00000000
00000100
00000000
01000000
00000100
,
01000000
00000100
00000000
00100000
,
00000000
00000000
00000010
00000000
00000100
00000000
00010000
00000001
,
00010000
00000000
01000000
00000000
00000100
00000000
01000000
00000100
,
01000000
00000000
00000010
00000000
00100000
00000000
00000010
00100000
,
00000010
00100000
00000000
00000100
,
00000000
00000000
01000000
00000000
00100000
00000000
00010000
10000000
,
00010000
01000000
01000000
00000010
,
00000010
00100000
00000000
00000100
,
00000000
00100000
01000000
00000100
,
00000010
00100000
00000100
01000000
,
00000010
00100000
00100000
00000100
,
00000100
01000000
00000000
00000010
,
00000000
00100000
01000000
00000100
,
00000010
00100000
00000100
01000000
,
00000010
00000000
10000000
00010000
10000000
00000000
00000001
00010000
,
00000001
00100100
00000000
00000000
,
00000000
01000010
00000000
00000000
,
00000000
00100000
00000100
00000010
,
00100000
01000100
00000000
00000000
,
00000000
00000000
00000001
00010000
00000001
00000000
10000000
00010000
,
10000000
00000000
00000100
00100000
00000100
00000000
00100000
00000100
,
00100000
00000010
00000010
01000000
,
01000000
00000100
00000000
00100000
,
00000000
00000100
00000010
00100000
,
01000000
00000010
01000000
00000100
,
00100000
00000100
00000100
00100000
,
00100000
00000010
00000000
01000000
,
00000000
00000100
00000010
00100000
,
01000000
00000010
01000000
00000100
,
00100000
00100100
00000000
00000000
,
00000000
01000010
00000000
00000000
,
00000000
00000100
00100000
01000000
,
00000010
01000100
00000000
00000000
,
00000000
01000000
00000100
00000010
,
01000000
00100000
01000000
00000100
,
00000010
00100000
00000100
01000000
,
00000010
01000010
00000000
00000000
;
#NOTEDATA:;
#STEPSTYPE:ds3ddx-single;
#DESCRIPTION:Power;
#DIFFICULTY:Medium;
#METER:7;
#RADARVALUES:;
#BPMS:0.000=117.015;
#STOPS:0.000=0.000;
#DELAYS:;
#NOTES:
00000000
00000000
00000000
00000000
,
00000000
00000000
00000000
00000000
,
00000000
00000000
00000000
00000000
,
00000000
00000000
00000000
00000000
,
00000000
00000010
00000000
00000000
,
00000000
01000000
00000000
00000000
,
00000000
00000010
00000000
00000000
,
00000000
00000000
01000000
10000000
00000100
00010000
00100000
00000001
,
00100000
00010000
10000010
00000000
01000010
00000000
00100000
00000100
,
00000010
00000000
01000001
00000000
01000010
00000000
00000100
00100000
,
01000000
00000000
10000010
00000000
01000010
00000000
00100000
00000100
,
00000010
01010000
00000000
00000000
,
00000000
00000000
10000010
00000000
00100001
00000000
00000100
00010000
,
01000000
00000010
01000001
00000000
10000100
00000000
00100000
00010000
,
00000010
01000000
00000011
00000000
11000000
00000000
01000000
00000000
,
00000010
00000000
00000100
01000000
00100000
00000010
00000100
01000000
,
00100000
00000010
00100001
00000000
10000010
00000000
01000000
00010000
,
00000100
00100000
10000100
00000000
01000001
00000000
00000010
00010000
,
00100000
00000100
10100000
00000000
00000101
00000000
00000100
00000000
,
00100000
00000000
00100000
01000000
00000100
00000010
00100000
01000000
,
00000100
00000010
00100000
10000001
00100000
00000000
00000100
10000001
,
00000100
01000000
01100000
00000010
,
00000110
00000000
00100000
01000000
00100000
00000000
00000100
00000010
,
00000100
00000000
00000010
00000100
00100000
01000000
00000010
00100000
,
00000010
00000000
00100000
10000001
00100000
00000000
00000100
10000001
,
00000100
00100000
01100000
00000100
,
00000110
00000000
01000000
00100000
01000000
00000000
00000010
00000100
,
00000010
00000000
01000000
00100000
00000100
00000010
01000000
00000100
,
01000000
00010000
00000010
00100000
00000100
00000010
01000000
00100000
,
00000010
00100000
01000100
00000000
00000000
00000000
00000000
00000000
,
00000000
00100010
00000000
00000000
,
00000000
01000100
00000000
00000000
,
00000000
00000000
00100010
00010000
00100100
00000000
01000100
00010000
,
01000010
00000000
00100000
00100000
11000100
00000000
00000100
00000100
,
00100011
00000000
01000000
01000000
00000010
00000010
00100000
00000100
,
00100000
00000000
00000010
00001000
00000010
00000000
01000000
00001000
,
01000000
00000010
00000100
00100000
,
01000000
00000000
00000010
01000000
10000010
00000000
01000000
00000010
,
01000001
00000000
00100000
00000010
00000100
01000000
00100000
00000010
,
00000100
01000000
00100000
10010000
00100000
00000010
00000100
00010001
,
00000100
01000000
00100000
10010000
00100000
00000010
00000100
00010001
,
00000100
00000010
00000100
00100000
,
01000000
00000000
00000010
00100000
01000000
00100000
00000100
00000010
,
01000000
00000010
00100001
00000000
00000000
00000000
00000000
00000000
,
00000000
10000100
00000000
00000000
,
00000000
01001000
00000000
00001010
,
00000000
00000000
01000100
00010000
00100100
00000000
00100010
00010000
,
01000010
01000001
00000000
00000000
,
00000000
10000010
00000000
00000000
,
00000000
00000000
00100000
00010000
01000000
00000001
00000010
00010000
,
01000000
10100101
00000000
00000000
;
#NOTEDATA:;
#STEPSTYPE:ds3ddx-double;
#DESCRIPTION:Dual;
#DIFFICULTY:Medium;
#METER:7;
#RADARVALUES:;
#BPMS:0.000=117.015;
#STOPS:0.000=0.000;
#DELAYS:;
#NOTES:
0000000000000000
0000000000000000
0000000000000000
0000000000000000
,
0000000000000000
0000000000000000
0000000000000000
0000000000000000
,
0000000000000000
0000000000000000
0000000000000000
0000000000000000
,
0000000000000000
0000000000000000
0000000000000000
0000000000000000
,
0000000000000000
0000000000000100
0000000000000000
0000000000000000
,
0000000000000000
0000000000000000
0000000000000000
0000000000000000
0000000000000000
0000000000000000
0000000000000000
0000000000000000
0000000000000000
0000000000000000
0000000000000000
0000000000000000
0000000000000000
0000000000000000
0000000000000000
0000000000000000
0000000001000000
0000010000000000
0000000000000000
0000000000000000
0000000000000000
0000000000000000
0000000000000000
0000000000000000
0000000000000000
0000000000000000
0000000000000000
0000000000000000
0000000000000000
0000000000000000
0000000000000000
0000000000000000
0000000000000000
0000000000000000
0000000000000000
0000000000000000
0000000000000000
0000000000000000
0000000000000000
0000000000000000
0000000000000000
0000000000000000
0000000000000000
0000000000000000
0000000000000000
0000000000000000
0000000000000000
0000000000000000
0000000000000000
0000000000000000
0000000000000000
0000000000000000
0000000000000000
0000000000000000
0000000000000000
0000000000000000
0000000000000000
0000000000000000
0000000000000000
0000000000000000
0000000000000000
0000000000000000
0000000000000000
0000000000000000
,
0000000000000000
0010000000000000
0000000000000000
0000000000000000
,
0000000000000000
0000000000000000
0100000000000000
1000000000000000
0000010000000000
0001000000000000
0010000000000000
0000000100000000
,
0010000000000000
0001000000000000
1000001000000000
0000000000000000
0100001000000000
0000000000000000
0000010000000000
0000000000100000
,
0000000001000000
0000000000000000
0000000010000010
0000000000000000
0000000001000010
0000000000000000
0000000000100000
0000010000000000
,
0000001000000000
0000000000000000
0100000100000000
0000000000000000
0100001000000000
0000000000000000
0000000001000000
0000001000000000
,
0000000000100000
0000000001100000
0000000000000000
0000000001000010
,
0000000000000000
0000000000000000
0000000010000010
0000000000000000
0000000000100001
0000000000000000
0000000000000100
0000000000010000
,
0000000001000000
0000000000000010
0000000001000001
0000000000000000
0000000010000100
0000000000000000
0000000000100000
0000000000010000
,
0000000000000010
0000000001000000
0000000000000010
0000000000000000
0000000001000000
0000000000000000
0000000000100000
0000000000000000
,
0000010000000000
0000000000000000
0000000000100000
0000000001000000
0000001000000000
0000010000000000
0000000000100000
0000000001000000
,
0000001000000000
0000010000000000
0010000100000000
0000000000000000
1000001000000000
0000000000000000
0100000000000000
0001000000000000
,
0000010000000000
0010000000000000
1000010000000000
0000000000000000
0100000100000000
0000000000000000
0000001000000000
0001000000000000
,
0010000000000000
0000010000000000
0010000000000000
0000000000000000
0000010000000000
0000000000000000
0000001000000000
0000000000000000
,
0000000001000000
0000000000000000
0000010000000000
0000001000000000
0000000001000000
0000000000100000
0000010000000000
0000001000000000
,
0000000001000000
0000000000100000
0000000000000010
0000000000001000
0000000000000010
0000000000000000
0000000001000000
0000000000001000
,
0000000001000000
0000000000000010
0000001000000000
0000000001000000
,
0100000000000000
0000001000000000
0000010000000000
0000000000100000
,
0000000001000000
0000000000000000
0000000000000010
0000000000000100
0000000000100000
0000000001000000
0000000000000010
0000000000100000
,
0000000000000010
0000000000000000
0000000000100000
0000000010000001
0000000000100000
0000000000000000
0000000000000100
0000000010000001
,
0000000000000100
0000000000100000
0000000001100000
0000000000000100
,
0000000000000110
0000000000000000
0000000001000000
0000000000100000
0000000001000000
0000000000000000
0000000000000010
0000000000000100
,
0000000000000010
0000000000000000
0000000001000000
0000000000100000
0000001000000000
0000000001000000
0000001000000000
0000010000000000
,
0100000000000000
0001000000000000
0000001000000000
0010000000000000
0000010000000000
0000001000000000
0100000000000000
0010000000000000
,
0000001000000000
0010000000000000
0100010000000000
0000000000000000
0000000000000000
0000000000000000
0000000000000000
0000000000000000
,
0000000000000000
0000010001000000
0000000000000000
0000000000000000
,
0000000000000000
0000000001000100
0000000000000000
0000000000000000
,
0000000000000000
0000000000000000
0000000000100010
0000000000010000
0000010000100000
0000000000000000
0000010000100000
0001000000000000
,
0100010000000000
0000000000000000
0010000000000000
0010000000000000
1100010000000000
0000000000000000
0000010000000000
0000010000000000
,
0010001100000000
0000000000000000
0000001000000000
0000000000000000
0100000000000000
0000000000000000
0000010000000000
0010000000000000
,
0000010000000000
0000000000000000
0100000000000000
0000100000000000
0100000000000000
0000000000000000
0000001000000000
0000100000000000
,
0000001000000000
0100000000000000
0000000001000000
0000001000000000
,
0000000000000010
0000000000000000
0000000001000000
0000000000000010
0000000001000001
0000000000000000
0000000000000010
0000000001000000
,
0000000010000010
0000000000000000
0000000000000100
0000000001000000
0000000000100000
0000001000000000
0000000001000000
0000010000000000
,
0000000000100000
0000001000000000
0000000000100000
0000000000010000
0000000000100000
0000000001000000
0000010000000000
0001000000000000
,
0000010000000000
0000001000000000
0000000000100000
0000000000010000
0000000000100000
0000000001000000
0000010000000000
0001000000000000
,
0000010000000000
0000001000000000
0000000001000000
0000000000000000
0000000000100000
0000000000000000
0000010000000000
0000000000000000
,
0000001000000000
0000000000000000
0000000001000000
0000010000000000
0000001000000000
0010000000000000
0000010000000000
0010000000000000
,
0000001000000000
0000010000000000
0000000000110000
0000000000000000
0000000000000000
0000000000000000
0000000000000000
0000000000000000
,
0000000000000000
0001010000000000
0000000000000000
0000000000000000
,
0000000000000000
0000001000100000
0000000000000000
0010001000000000
,
0000000000000000
0000000000000000
0100010000000000
0001000000000000
0000010000100000
0000000000000000
0000010000100000
0000000000010000
,
0000000000100010
0000000001000001
0000000000000000
0000000000000000
,
0000000000000000
0000000010000010
0000000000000000
0000000000000000
,
0000000000000000
0000000000000000
0000000000000100
0000000000010000
0000000000100000
0000000110000000
0000010000000000
0001000000000000
,
0010000000000000
1000000000000000
0010000000000000
0000000000000000
0000000000000000
0000000000000000
0000000000000000
0000000000000000
;
