#TITLE:PUCK;
#SUBTITLE:;
#ARTIST:SuperMarket;
#TITLETRANSLIT:;
#SUBTITLETRANSLIT:;
#ARTISTTRANSLIT:;
#CREDIT:locuuraa [from 44.mp];
#BANNER:PUCK.png;
#BACKGROUND:PUCK.png;
#LYRICSPATH:;
#CDTITLE:../CDTitles/3DDX.png;
#MUSIC:PUCK.mp3;
#OFFSET:0.073;
#SAMPLESTART:60.000;
#SAMPLELENGTH:10.000;
#DISPLAYBPM:190.0;
#BGCHANGES:;
#NOTEDATA:;
#STEPSTYPE:ds3ddx-single;
#DESCRIPTION:Pretty;
#DIFFICULTY:Easy;
#METER:9;
#RADARVALUES:;
#BPMS:0.000=190.000;
#STOPS:0.000=0.000;
#DELAYS:;
#NOTES:
00000000
00000000
00000000
00000000
,
00000000
00000000
00000000
00000000
,
00000000
00000000
00000000
00000000
,
00000000
00000000
00000000
00000000
,
00000000
01000000
00000000
11000000
,
00000000
00000100
00000000
00000101
,
00000000
01010000
00000000
00000000
,
00000000
00000100
00000000
00100000
,
00000000
00000011
00000000
00000000
,
00000000
00100000
00000000
01010000
,
00000000
00000100
00000000
00010010
,
00000000
01000000
00000000
00000101
,
00000000
00000010
00000000
00000011
,
00000000
01000000
00000000
11000000
,
00000000
00100100
00100100
00100100
,
00100100
01000010
01000010
01000010
,
01000010
00000010
01000000
00000100
,
00100000
00000010
01000000
00000100
,
00100000
00000010
00100000
00000010
,
01000000
00000010
00100000
00000100
,
01000000
00000011
00000000
11000000
,
00000000
00010100
00000000
00000010
,
00000000
11000001
00000000
00000100
,
00000000
00000011
00000000
11000000
,
00000000
00100100
00100100
01000010
,
01000010
00100100
00100100
01000010
,
01000010
00100000
00000010
00000100
,
00100000
00000100
01000000
00000010
,
00100000
00000100
00000000
00000011
,
00000000
01000000
00000000
00000011
,
00000000
00100000
00100100
00000100
,
00100100
01000000
01000010
00000010
,
01000010
10100000
00000000
01010000
,
00000000
00000101
00000000
00010010
,
00000000
01000000
00000010
01000000
,
01000000
00000100
00100000
00000100
,
00000100
11000000
00000000
00000000
,
00000000
00000011
00000000
00000000
,
00000000
11000000
00000000
00000011
,
00000000
00100100
00100100
01000010
,
01000010
00000100
00100100
01000000
,
00000010
00100000
00100100
00000010
,
01000000
00000010
01000010
00000100
,
10100000
00000010
11000000
00000000
,
00000000
00000000
00100000
00000100
00100000
00000000
00000010
01000000
,
00000010
00000000
00100000
00000100
00100000
00000000
00000010
01000000
,
00000010
00000000
01000001
00000000
,
10000010
00000000
10000010
00000000
,
01000000
00000010
01000000
00000100
,
00000100
01000000
01000000
00000010
,
00000010
00100000
00100000
00000010
,
01000000
00000010
01000000
00000100
,
00100000
00000101
00000000
00000000
,
00000000
10100000
00000000
00000000
,
00000000
00000100
00100100
00100000
,
00100100
01000010
01000010
01000010
,
01000010
01000000
10000001
00000010
,
10000001
00000010
01000010
00100000
,
00100100
01000000
01000010
00000100
,
00100100
01000000
01100000
00000010
,
00000110
01000000
01100000
00000010
,
00000110
00000010
01000010
01000010
,
00000000
00000000
00000000
00000000
00000000
00000000
00000000
01000000
,
00000000
00000000
00000000
00000000
,
00000011
00000000
00000000
00000000
,
00000000
00000000
00000000
00000000
,
00000000
00000000
00000000
00000000
,
00000000
00000000
00000000
00000000
,
00000000
00000000
00000000
00000000
,
00000000
00000000
00000000
00000000
,
00000000
00000000
00000000
00000000
00000000
00010100
00000000
00000000
;
#NOTEDATA:;
#STEPSTYPE:ds3ddx-single;
#DESCRIPTION:Power;
#DIFFICULTY:Medium;
#METER:8;
#RADARVALUES:;
#BPMS:0.000=190.000;
#STOPS:0.000=0.000;
#DELAYS:;
#NOTES:
00000000
00000000
00000000
00000000
,
00000000
00000000
00000000
00000000
,
00000000
00000000
00000000
00000000
,
00000000
00000000
00000000
00000000
,
00000000
11000000
00000000
11000000
,
00000000
00000101
00000000
00000101
,
00000000
01010000
00000000
00000000
,
00000000
00000101
00000000
10100000
,
00000000
00000011
00000000
00000000
,
00000000
10100000
00000000
01010000
,
00000000
00000101
00000000
00010010
,
00000000
11000000
00000000
00000101
,
00000000
00000011
00000000
00000011
,
00000000
11000000
00000000
11000000
,
00000000
00000000
00000000
00000000
00000100
00100000
00000000
00000000
00000100
00100000
00000000
00000000
00000100
00100000
00000000
00000000
,
00000100
00100000
00000000
00000000
00000010
01000000
00000000
00000000
00000010
01000000
00000000
00000000
00000010
01000000
00000000
00000000
,
00000010
01000000
00000000
00000000
00000010
00000000
00000010
00000000
01000000
00000000
00000100
00000000
00100000
00000000
00100000
00000000
,
00000010
01000000
00000100
00100000
00000010
01000000
00000100
00000100
,
00100000
00100000
00000010
01000000
00000100
01000000
00000010
01000000
,
00000100
01000000
00000010
00000010
00100000
00100000
00000100
00000100
,
01000000
00000011
00000000
11000000
,
00000000
00010100
00000000
00000011
,
00000000
11000001
00000000
10000101
,
00000000
00000011
00000000
11000000
,
00000000
00000000
00000010
00100000
00000100
01000000
00000010
00100000
,
00000100
01000000
00000010
00100000
00000100
01000000
01000000
00000010
,
01000000
00000100
00100000
00000010
01000000
00000100
01000000
00000100
,
01000000
00000010
00100000
00000010
00100000
00000100
01000000
00000100
,
01000000
00000011
00000000
00000101
,
00000000
11000000
00000000
00000011
,
00000000
00100000
01000101
00100000
,
01000101
00000100
10100010
00000100
,
10100010
00000101
00000000
11000000
,
00000000
11000000
00000000
00000011
,
00000000
00000000
01000000
00000010
01000000
01000000
00000100
00100000
,
00000100
00000000
00000100
00000000
01000000
00000000
00000010
00000000
00100000
00000000
00000100
00000000
01000000
00000010
01000000
00000010
,
01000000
00000010
01000000
00000010
11000000
00000000
00000000
00000000
00000000
00000000
00000000
00000000
00000000
00000000
00000000
00000000
,
00000000
00000011
00000000
00000000
,
00000000
00100001
00000000
10000100
,
00000000
00000000
00000000
00000000
00000100
00100000
00000000
00000000
00000100
00100000
00000000
00000000
00000010
01000000
00000000
00000000
,
00000010
01000000
00000000
00000000
00000100
00000000
00000000
00000000
10100101
00000000
00000000
00000000
00000010
00000000
01000000
00000000
,
00000100
00100000
00000010
00000000
11000011
00000000
00000100
00100000
,
00000010
01000000
00000100
00000000
00100101
00000000
00000010
00000000
,
11000010
00100000
00100101
00100000
,
00000100
00000000
01000000
00100000
01000001
00000000
00000010
00000100
,
10000010
00000000
01000000
00100000
01000001
00000000
00000010
00000100
,
10000010
01000000
01100001
00000010
,
10000110
00100000
00100101
00000100
,
10100100
00100011
00100011
11000100
,
11000100
00000000
00000010
00000100
00000010
01000000
00100000
01000000
,
00000010
11000100
11000100
00100011
,
00100011
00000000
01000000
00100000
01000000
00000010
00000100
00000010
,
01000000
00000011
00000000
00000000
,
00000000
11000000
00000000
00000000
,
00000000
01000100
00100010
01000100
,
00100010
01000100
01000100
00100010
,
00100010
00000000
01000100
00000000
00000010
00100000
00000100
01000000
,
00100000
01000000
00000010
00000100
00000010
00100000
00000100
01000000
,
00000100
01000000
00000010
00100000
00000010
00100000
00000100
01000000
,
00000010
01000000
00000010
00100000
00000100
00100000
00000100
01000000
,
00100000
01000000
00000010
01000000
00100000
01000000
00000010
00000100
,
00000010
01000000
00000010
00000100
00000010
01000000
00000010
01000000
,
00000000
00000000
00000000
00000000
00000000
00000000
00000000
11000000
,
00000000
00000000
00000000
00000000
,
00000011
00000000
00000000
00000000
,
00000000
00000000
00000000
00000000
,
00000000
00000000
00000000
00000000
,
00000000
00000000
00000000
00000000
,
00000000
00000000
00000000
00000000
,
00000000
00000000
00000000
00000000
,
00000000
00000000
00000000
00000000
00000000
00010100
00000000
00000000
;
#NOTEDATA:;
#STEPSTYPE:ds3ddx-double;
#DESCRIPTION:Dual;
#DIFFICULTY:Medium;
#METER:8;
#RADARVALUES:;
#BPMS:0.000=190.000;
#STOPS:0.000=0.000;
#DELAYS:;
#NOTES:
0000000000000000
0000000000000000
0000000000000000
0000000000000000
,
0000000000000000
0000000000000000
0000000000000000
0000000000000000
,
0000000000000000
0000000000000000
0000000000000000
0000000000000000
,
0000000000000000
0000000000000000
0000000000000000
0000000000000000
,
0000000000000000
0001010000000000
0000000000000000
0001010000000000
,
0000000000000000
0000000001011000
0000000000000000
0000000001011000
,
0000000000000000
0000000000110000
0000000000000000
0000000000000000
,
0000000000000000
1010000000000000
0000000000000000
0000010100000000
,
0000000000000000
0000000000100000
0000000000000000
0000000000000000
,
0000000000000000
0000000000000101
0000000000000000
0000000000010010
,
0000000000000000
0001101000000000
0000000000000000
0000000000110000
,
0000000000000000
0000000000000011
0000000000000000
0000000000000011
,
0000000000000000
0000000011000000
0000000000000000
0000000011000000
,
0000000000000000
0000000000110000
0000000000000000
0001010000000000
,
0000000000000000
0000000000000000
0000000000000000
0000000000000000
0000000000100000
0000010000000000
0000000000000000
0000000000000000
0000000000100000
0000010000000000
0000000000000000
0000000000000000
0000000000100000
0000010000000000
0000000000000000
0000000000000000
,
0000000000100000
0000010000000000
0000000000000000
0000000000000000
0000000001000000
0000001000000000
0000000000000000
0000000000000000
0000000001000000
0000001000000000
0000000000000000
0000000000000000
0000000001000000
0000001000000000
0000000000000000
0000000000000000
,
0000000001000000
0000001000000000
0000000000000000
0000000000000000
0000000001000000
0000000000000000
0000000001000000
0000000000000000
0000001000000000
0000000000000000
0000010000000000
0000000000000000
0010000000000000
0000000000000000
0000000000000000
0000000000000000
,
1010000000000000
0000000000000000
0000010000000000
0000001000000000
0000000001000000
0000000000100000
0000000000000100
0000000000000000
,
0000000000000101
0000000000000000
0000000000000010
0000000001000000
0000000000100000
0000000000000000
0000000000100000
0000010000000000
,
0000001000000000
0000000000000000
0010000000000000
0000001000000000
0000010000000000
0000000000100000
0000000001000000
0000000000000010
,
0000000000100000
0000000001010000
0000000000000000
0000000000000011
,
0000000000000000
0000000000110000
0000000000000000
0000000001000000
,
0000000000000000
0000001000000000
0000000000000000
1010000000000000
,
0000000000000000
0000001000000000
0000000000000000
0000000000110000
,
0000000000000000
0000000000000000
0000000000000010
0000000000100000
0000000000000100
0000000001000000
0000000000100000
0000000000000000
,
0000010000000000
0000000000000000
0000001000000000
0100000000000000
0000010000000000
0010000000000000
0000001000000000
0000010000000000
,
0000000001000000
0000000000000000
0000000000100000
0000000000000000
0000000001000000
0000000000000000
0000000000100000
0000000001000000
,
0000000000100000
0000010000000000
0000001000000000
0000010000000000
0100000000000000
0000001000000000
0010000000000000
0000001000000000
,
0010000000000000
0000001100000000
0000000000000000
0000000000010100
,
0000000000000000
0000000011000000
0000000000000000
0000000000000011
,
0000000000000000
0000010000000000
0000001000110000
0000010000000000
,
0000001000110000
0000000000100000
0001010001000000
0000000000100000
,
0001010001000000
0000001001000000
0000000000000000
1100000000000000
,
0000000000000000
1100000000000000
0000000000000000
0000001100000000
,
0000000000000000
0000000000000000
0100000000000000
0000001000000000
0000010000000000
0000010000000000
0000001000000000
0000010000000000
,
0000001000000000
0000000000000000
0010000000000000
0000001000000000
0100000000000000
0000010000000000
0000001000000000
0000000001000000
,
0000000000100000
0000000000000101
0000000000000000
0000000000100000
,
0000000000000000
0000000000010010
0000000000000000
0000000001000000
,
0000000000000000
0001010000000000
0000000000000000
0000000000000000
,
0000000000000000
0000000000000000
0000000000000000
0000000000000000
0000010000000000
0010000000000000
0000000000000000
0000000000000000
0000010000000000
0010000000000000
0000000000000000
0000000000000000
0000001000000000
0100000000000000
0000000000000000
0000000000000000
,
0000001000000000
0100000000000000
0000000000000000
0000000000000000
0000010000000000
0000000000000000
0000000000000000
0000000000000000
1010010100000000
0000000000000000
0000000000000000
0000000000000000
0000001000000000
0000000000000000
0000010000000000
0000000000000000
,
0000000001000000
0000001000000000
0000000001000000
0000000000000000
0000001001000000
0000000000000000
0000000000100000
0000000000000100
,
0000000001000000
0000000000000010
0000000000100000
0000000000000000
0000000000100101
0000000000000000
0000000000000010
0000000000000000
,
0000000011000010
0000000000100000
0000000000100101
0000000000100000
,
0000000000000100
0000000000000000
0000000001000000
0000000000100000
0000000001011000
0000000000000000
0000000000100000
0000000001000000
,
0000000000110000
0000000000000000
0000001000000000
0000010000000000
0001101000000000
0000000000000000
0000010000000000
0000001000000000
,
0001010000000000
0100000000000000
0110000100000000
0000001000000000
,
1000011000000000
0010000000000000
0010010100000000
0000010000000000
,
1010010000000000
0000000000000000
0000001000000000
0100000000000000
0000001000000000
0000001000000000
0010000000000000
0000000000000000
,
1010000000000000
0000000000000000
0000010000000000
0000001000000000
0000000001000000
0000000000100000
0000000000000100
0000000000000000
,
0000000000000101
0000000000000000
0000000000000010
0000000001000000
0000000000100000
0000000000000000
0000000000100000
0000010000000000
,
0000001000000000
0000000000000000
0010000000000000
0000001000000000
0000010000000000
0000000000100000
0000000001000000
0000000000000010
,
0000000000100000
0000000001010000
0000000000000000
0000000000000011
,
0000000000000000
0000000000110000
0000000000000000
0000000001000000
,
0000000000000000
0000001000000000
0000000000000000
1010000000000000
,
0000000000000000
0100010000000000
0010001000000000
0100010000000000
,
0010001000000000
0010010000000000
0010010000000000
0000011000000000
,
0000011000000000
0000001001000000
0000001001000000
0000000001100000
,
0000000001100000
0000000000000000
0000000000100000
0000001000000000
0000000000100000
0000001000000000
0000000001000000
0000010000000000
,
0000000001000000
0000010000000000
0000001000000000
0100000000000000
0000001000000000
0100000000000000
0000010000000000
0010000000000000
,
0000010000000000
0010000000000000
0000001000000000
0000010000000000
0000000000100000
0000000001000000
0000000000000010
0000000001000000
,
0000000000000010
0000000001000000
0000000000000100
0000000000100000
0000000000000100
0000000000100000
0000000000000101
0000000000000000
,
0000000000000000
0000000000000000
0000000000000000
0000000000000000
0000000000000000
0000000000000000
0000000000000000
1100000000000000
,
0000000000000000
0000000000000000
0000000000000000
0000000000000000
,
0001010000000000
0000000000000000
0000000000000000
0000000000000000
,
0000000000000000
0000000000000000
0000000000000000
0000000000000000
,
0000000000000000
0000000000000000
0000000000000000
0000000000000000
,
0000000000000000
0000000000000000
0000000000000000
0000000000000000
,
0000000000000000
0000000000000000
0000000000000000
0000000000000000
,
0000000000000000
0000000000000000
0000000000000000
0000000000000000
,
0000000000000000
0000000000000000
0000000000000000
0000000000000000
0000000000000000
0000000000000101
0000000000000000
0000000000000000
;
