#TITLE:我们的接力赛;
#SUBTITLE:Our Relay Race;
#ARTIST:明骏女孩 (Mingjun Girl);
#TITLETRANSLIT:wǒmen de jiēlì sài;
#SUBTITLETRANSLIT:;
#ARTISTTRANSLIT:Míng Jùn Nǚhái;
#CREDIT:locuuraa [from 09.mp];
#BANNER:Our Relay Race.png;
#BACKGROUND:Our Relay Race.png;
#LYRICSPATH:;
#CDTITLE:../CDTitles/3DDX.png;
#MUSIC:Our Relay Race.mp3;
#OFFSET:-0.363;
#SAMPLESTART:6.500;
#SAMPLELENGTH:10.000;
#DISPLAYBPM:144.0;
#BGCHANGES:;
#NOTEDATA:;
#STEPSTYPE:ds3ddx-single;
#DESCRIPTION:Pretty;
#DIFFICULTY:Easy;
#METER:4;
#RADARVALUES:;
#BPMS:0.000=143.930;
#STOPS:0.000=0.000;
#DELAYS:;
#NOTES:
00000000
00000000
00000000
00000000
,
00000000
00000000
00000000
00000000
,
00000000
00000000
00000000
00000000
,
00000000
00000000
00000000
00000000
,
00100000
00000000
00000100
00000000
,
01000000
00000000
00000010
00000000
,
00100000
00000000
00000100
00000000
,
01000000
00000000
00000010
00000000
,
00100000
00000000
00000100
00000000
,
01000000
00000010
00100000
00000100
,
00100000
00000100
01000000
00000010
,
10100000
00000000
00000101
00000000
,
10100000
00000000
00100100
00100100
,
00000011
00000000
11000000
00000000
,
00000100
00000010
00000100
00000000
,
00100000
01000000
00100000
00000000
,
00100100
00000000
01000010
00000000
,
00000100
00000010
00000100
00000000
,
00100000
01000000
00100000
00000000
,
00000010
01000000
01000000
00000010
,
01000000
00000010
01000000
00000000
,
00000101
00000000
10100000
00000000
,
00000100
00100000
00000100
00000000
,
00100000
01000000
00000010
01000000
,
01000010
00000000
00000000
00000000
,
10000001
00100100
00000000
00000000
,
00000100
00000010
00100000
01000000
,
00000011
00000000
11000000
00000000
,
00000010
00000010
01000000
00000000
,
00000101
00000000
00110000
00000000
,
10100000
00000000
00010100
00000000
,
01000000
00000000
00000010
00000000
,
00100000
00000100
00000010
01000000
,
00000010
01000000
00000010
00000010
,
01000000
00000010
01000000
01000000
,
00000101
00000000
10100000
00000000
,
00010010
00000000
00000000
00000000
,
00000100
00100000
00000100
00000000
,
00100000
00000100
00100000
00000000
,
00000101
00000000
11000000
00000000
,
00010010
00000000
00000000
00000000
,
00100100
00100100
00000100
00100000
,
00000011
00000000
11000000
00000000
,
01000010
01000010
00000010
01000000
,
00000101
00000000
10100000
00000000
,
00000100
00100000
00000100
00000100
,
00110000
00000000
00100100
00000000
,
00000100
00000010
01000000
00000000
,
00010100
00000000
00000000
00000000
,
01000000
00000010
00100000
00000100
,
00100000
00000100
01000000
00000010
,
10100000
00000000
00000101
00000000
,
10100000
00000000
00100100
00100100
,
00000011
00000000
11000000
00000000
,
00000100
00000010
00000100
00000000
,
00100000
01000000
00100000
00000000
,
00000100
00100000
01000000
00000010
,
00110000
00000000
00000000
00000000
;
#NOTEDATA:;
#STEPSTYPE:ds3ddx-single;
#DESCRIPTION:Power;
#DIFFICULTY:Medium;
#METER:4;
#RADARVALUES:;
#BPMS:0.000=143.930,192.000=575.720,200.000=287.860;
#STOPS:0.000=0.000,192.000=0.820,199.000=0.010;
#DELAYS:;
#NOTES:
00000000
00000000
00000000
00000000
,
00000000
00000000
00000000
00000000
,
00000000
00000000
00000000
00000000
,
00000000
00000000
00000000
00000000
,
00000100
00000000
00000010
00000000
,
00100000
00000000
00000100
00000000
,
01000000
00000000
00100000
00000000
,
00000010
00000000
01000000
00000000
,
01000000
00000100
00100000
00000000
00000001
00010000
00000001
00000000
,
00000010
01000000
00000010
01000000
,
00010000
01000010
10000000
10000000
,
00000101
10100000
00000011
11000000
,
10000101
00000000
00000010
00000000
10000000
00000001
00110000
00000000
,
00000001
00000011
10000000
11000000
,
00000100
00000010
00000100
00000100
,
00100000
01000000
00100000
00100000
,
00000101
00000000
10100000
00000000
00000001
00010000
00000001
00000000
,
00000100
00000010
00000101
00000101
,
00100000
01000000
10100000
10100000
,
00000010
11000000
01000000
00000011
,
01000000
00000010
01000000
00000000
,
00100000
00000010
00100000
00010010
,
00000100
01000000
00000100
01010000
,
10000101
00000000
00000010
00000000
01000000
00000000
00000010
00000001
,
01000010
00000000
00000000
00000000
,
10000001
01010100
00000000
00000000
,
00000100
00000010
00100000
01000000
,
00000100
10100001
00000100
10100001
,
01000000
10000011
01000000
10000011
,
11000000
00000000
00000000
00000000
01010000
00000001
00000000
00000000
,
00000011
00000000
00000000
00000000
00010010
10000000
00000000
00000000
,
10100000
00000000
00000101
00000000
,
00100000
00000100
00000010
01000000
,
00000011
11000000
00000011
00000011
,
11000000
00000011
11000000
11000000
,
00100000
00000010
00000100
01000000
,
01000000
00000001
00000000
00000000
,
00000101
10100000
00000101
00000011
,
10100000
00000101
10100000
11000000
,
00000100
00010100
00000010
00100000
,
01010000
00000000
00000000
00000000
,
00100000
01000000
00000010
00000000
00000100
00000010
01000000
00000000
,
00100000
00000010
00100000
00000010
,
00000100
00000010
01000000
00000000
00100000
01000000
00000010
00000000
,
00000100
01000000
00000100
01000000
,
10000100
00100000
00000101
00000101
,
00110000
00000000
00100100
00000000
,
00000100
00000010
01000000
00000000
,
10000011
00000000
00000000
00000000
,
00000000
00000000
00000000
00000000
,
00000010
00000000
01000000
00000000
,
00000010
00000000
01000000
00000000
,
00010000
00000000
01000010
00000000
,
10000000
00000000
10000000
00000000
,
00000101
00000000
10100000
00000000
,
00000011
00000000
11000000
00000000
,
10000101
00000000
00000010
00000000
,
10000000
00010000
10000000
00000000
,
00000001
00000000
00000011
00000000
,
10000000
00000000
11000000
00000000
,
00000100
00000000
00000010
00000000
,
00000100
00000000
00000100
00000000
,
00100000
00000000
01000000
00000000
,
00100000
00000000
00100000
00000000
,
00000101
00000000
10100000
00000000
,
00010000
10000000
00000001
00000000
,
01000010
00000000
00000000
00000000
;
#NOTEDATA:;
#STEPSTYPE:ds3ddx-double;
#DESCRIPTION:Dual;
#DIFFICULTY:Medium;
#METER:4;
#RADARVALUES:;
#BPMS:0.000=143.930,192.000=575.720,200.000=143.930;
#STOPS:0.000=0.000,192.000=0.820,199.000=0.010;
#DELAYS:;
#NOTES:
0000000000000000
0000000000000000
0000000000000000
0000000000000000
,
0000000000000000
0000000000000000
0000000000000000
0000000000000000
,
0000000000000000
0000000000000000
0000000000000000
0000000000000000
,
0000000000000000
0000000000000000
0000000000000000
0000000000000000
,
0000000000000100
0000000000000000
0000000000000010
0000000000000000
,
0000000001000000
0000000000000000
0000000000100000
0000000000000000
,
0000010000000000
0000000000000000
0000001000000000
0000000000000000
,
0100000000000000
0000000000000000
0010000000000000
0000000000000000
,
0100000000000000
0000001000000000
0010000000000000
0010000000000000
,
0000001000000000
0100000000000000
0000001000000000
0100000000000000
,
0001000000000000
0100001000000000
1000000000000000
1000000000000000
,
0000001000000000
0000000001000000
0000000000100000
0000000000100000
,
0000000010000101
0000000000000000
0000000000000010
0000000000000000
0000000010000000
0000000000000001
0000000000110000
0000000000000000
,
0000000000000001
0000000000000011
0000000010000000
0000000011000000
,
0000000000000100
0000000000000010
0000000000000100
0000000000000100
,
0000000000100000
0000000001000000
0000001000000000
0000000001000000
,
0000010000000000
0000000000000000
0000000000100000
0000000000000000
0001000000000000
0000000000010000
0001000000000000
0000000000000000
,
0000000000100000
0000000001000000
0000000000110000
0000000000110000
,
0000010000000000
0000001000000000
0001010000000000
0001010000000000
,
0000000000100000
0001101000000000
0000001000000000
0000000000110000
,
0000000001000000
0000000000000010
0000000001000000
0000000000000000
,
0000000000100000
0000000000000010
0000000000100000
0000000000010010
,
0000000000000100
0000000001000000
0000000000000100
0000000001010000
,
0000000010000101
0000000000000000
0000000000000010
0000000000000000
0000000001000000
0000000000000000
0000000000100000
0000000000010000
,
0000000001100000
0000000000000000
0000000000000000
0000000000000000
,
0001100000011000
0000000110000000
0000000000000000
0000000000000000
,
0000010000000000
0000001000000000
0010000000000000
0100000000000000
,
0000010000000000
1010000100000000
0000010000000000
0000101000000000
,
0000001000000000
0001100000110000
0000000001000000
0000000010000011
,
0000000000110000
0000000000000000
0000000000000000
0000000000000000
0001010000000000
0000000000010000
0000000000000000
0000000000000000
,
0001010000000000
0000000000000000
0000000000000000
0000000000000000
0000000000110000
0001000000000000
0000000000000000
0000000000000000
,
0000010000010000
0000000000000000
0001001000000000
0000000000000000
,
0010000000000000
0000010000000000
0000001000000000
0100000000000000
,
0000001100000000
1100000000000000
0000001100000000
0000001100000000
,
1100000000000000
0000001100000000
1100000000000000
1100000000000000
,
0010000000000000
0000001000000000
0010000000000000
0000000000100000
,
0000010000000000
0001000000100000
0000000000000000
0000000000000000
,
0000000000110000
0001101000000000
0000000000110000
0000000001010000
,
0001010000000000
0000000001011000
0001010000000000
0001001000000000
,
0000000000100000
0001010000000000
0000001000000000
0100000000000000
,
0000001000000000
0000000110000000
0000000000000000
0000000000000000
,
0000000000000010
0000000001000000
0000001000000000
0100000000000000
,
0010000000000000
0000001000000000
0010000000000000
0001001000000000
,
0100000000000000
0000001000000000
0000000001000000
0000000000000010
,
0000000000000100
0000000001000000
0000000000000100
0000000001010000
,
0000000010000100
0000000000100000
0000000000000101
0000000000000101
,
0000000000110000
0000000000000000
0000000001100000
0000000000000000
,
0000010000000000
0000001000000000
0100000000000000
0000000000000000
,
1000001100000000
0000000000000000
0000000000000000
0000000000000000
,
0000000000000000
0000000000000000
0000000000000000
0000000000000000
,
0000001000000000
0100000000000000
0000001000000000
0100000000000000
,
0001000000000000
0100001000000000
1000000000000000
1000000000000000
,
0000001000000000
0000000001000000
0000000000100000
0000000000100000
,
0000000010000101
0000000000000010
0000000000010000
0000000010000000
,
0000000000000001
0000000000000011
0000000010000000
0000000011000000
,
0000000000000100
0000000000000010
0000000000000100
0000000000000100
,
0000000000100000
0000000001000000
0000010000000000
0000010000000000
,
0000000000100000
0000010000000000
0000000000010000
0001000000000000
,
0101100000000000
0000000000000000
0000000000000000
0000000000000000
;
