#TITLE:不怕不怕;
#SUBTITLE:No More Panic;
#ARTIST:郭美美 (Jocie Kwok);
#TITLETRANSLIT:bùpà bùpà;
#SUBTITLETRANSLIT:;
#ARTISTTRANSLIT:Guō Měiměi;
#CREDIT:locuuraa [from 00.mp];
#BANNER:No More Panic.png;
#BACKGROUND:No More Panic.png;
#LYRICSPATH:;
#CDTITLE:../CDTitles/3DDX.png;
#MUSIC:No More Panic.mp3;
#OFFSET:-0.364;
#SAMPLESTART:8.500;
#SAMPLELENGTH:10.000;
#DISPLAYBPM:127.0;
#BGCHANGES:;
#NOTEDATA:;
#STEPSTYPE:ds3ddx-single;
#DESCRIPTION:Pretty;
#DIFFICULTY:Easy;
#METER:5;
#RADARVALUES:;
#BPMS:0.000=126.650;
#STOPS:0.000=0.000;
#DELAYS:;
#NOTES:
00000000
00000000
00000000
00000000
,
00000000
00010000
00000000
00010000
,
00000000
00010000
00000000
00010000
,
00000100
00000100
00100000
00100000
,
10000000
00000001
00010000
10000001
,
00000100
00000100
00100000
00100000
,
00000010
01000010
01000000
01000010
,
00000010
01000000
00000010
01000000
,
00010100
00010100
00110000
00110000
,
00000100
00100000
00000101
00000101
,
01000000
00000000
00000010
00000000
,
00000010
00000000
00100000
00100000
,
00000100
00100000
00000100
00000100
,
10100000
00000000
01000000
01000000
,
00000011
00000000
01000000
01000000
,
00000010
01000000
00000010
00000010
,
10100000
00000000
00000101
00000000
,
00100000
00100000
00000101
00000000
,
00000010
00000010
11000000
00000000
,
00100000
00100000
00000100
00000100
,
00010000
00010000
10000001
00010000
,
00000000
00000000
00000000
00000000
,
00000101
00000000
10100000
00000000
,
00000011
00000000
11000000
00000000
,
00000010
00000011
00000011
00000000
,
01000000
11000000
11000000
00000000
,
00000011
11000000
00000010
01000000
,
00000101
10100000
00000100
00000000
,
00000100
00000000
00100000
00000000
,
00010000
00010000
10000001
00010000
,
00100000
10100000
00000100
00000101
,
00100000
10100000
00000100
00000101
,
00010000
10000001
00010000
10000001
,
00010000
10000001
00000000
00000000
,
01000000
11000000
00000010
00000011
,
01000000
11000000
00000010
00000011
,
00000000
00100000
00010000
00000100
,
00010000
00010000
00100000
00000100
,
10100001
00000000
00000000
00000000
,
00100100
00000000
10000001
00000000
,
10100000
10100000
00000101
00000101
,
00000000
00100100
00000000
00100100
,
00000000
00100100
00000000
00000000
,
00000101
00000000
11000000
00000000
,
00000101
00000000
10100000
00000000
,
00000100
00000100
00100000
00100000
,
00000100
00000100
00100000
00100000
,
00000011
11000000
00000011
00000000
,
00000101
10100000
00000101
00000000
,
00000100
00100100
00100000
00100100
,
00000011
00000011
11000000
11000000
,
01000010
00000000
00000000
00000000
;
#NOTEDATA:;
#STEPSTYPE:ds3ddx-single;
#DESCRIPTION:Power;
#DIFFICULTY:Medium;
#METER:6;
#RADARVALUES:;
#BPMS:0.000=126.650,152.000=63.325,153.000=126.650;
#STOPS:0.000=0.000,152.000=0.958;
#DELAYS:;
#NOTES:
00000000
00000000
00000000
00000000
,
00000100
00010000
00100000
00010000
,
00000100
00010000
00100000
00010000
,
00000101
00000101
00110000
00110000
,
01000100
00010100
00100010
00110000
,
00010100
00000101
00110000
10100000
,
00000100
10100101
00100000
10100101
,
00000010
00000100
01000000
00100000
,
10100101
00010001
10100101
10010000
,
00000001
00000001
00100000
01000000
,
10000000
10000000
00000100
00000010
,
00000011
00000011
10100000
10100000
,
00100100
00000000
00000000
00000000
00000000
00100000
00000100
00100000
,
00010100
00000000
00000000
00000000
00000000
00000010
01000000
00000010
,
01010000
00000000
00000000
00000000
00000000
00000100
00100000
00000100
,
00100000
00100000
00000010
00000010
,
00110000
01000010
00010100
01000010
,
00000101
10100000
00000101
10100000
,
00010100
00011010
00010100
00011010
,
00000100
00000100
00100000
00100000
,
00010000
00010000
00100100
10000001
,
00000000
00000000
00000000
00000000
,
00000101
10100000
00000101
10100000
,
00000011
00100010
00000011
00100010
,
00000011
00100010
11000000
11000000
,
11000000
00000000
00000010
01000000
00000010
00000000
00000000
00000000
,
00000001
00000000
10000000
00000000
00000100
00100000
00000100
00000000
,
00000001
00000000
10000000
00000000
00000010
01000000
00000010
00000000
,
00000100
00100000
00100000
00100000
,
00010000
00010000
00100100
10000001
,
00110000
10000001
10110000
10000001
,
00010100
10000001
00010101
10000001
,
00001000
10000001
00001000
10000001
,
00010000
00010000
00100000
00100100
,
10100000
00000101
10100000
00000101
,
00110000
01011000
00110000
01011000
,
00100000
00100000
00000100
00000100
,
00100000
00100000
00110100
10000001
,
00010000
00110100
00110100
10000001
,
10000001
00110100
10000001
00110100
,
10000001
00000100
10000101
00100000
,
10100001
00000000
00000100
00100000
00000100
00000000
01000000
00000010
,
01000000
00000100
01000000
00000100
,
01000000
00000101
10100000
00000101
,
10100000
00100000
00000010
00100000
,
00000010
00110000
00110000
00000100
,
00000100
00010110
00011010
00011010
,
00100000
01110000
01011000
01011000
,
00100000
00000100
00100100
00000010
,
01000010
00000000
00000100
00100000
00000100
00100000
00000100
00000100
,
00000100
10100101
00000000
00000000
;
#NOTEDATA:;
#STEPSTYPE:ds3ddx-double;
#DESCRIPTION:Dual;
#DIFFICULTY:Medium;
#METER:6;
#RADARVALUES:;
#BPMS:0.000=126.650,152.000=63.325,153.000=126.650;
#STOPS:0.000=0.000,152.000=0.958;
#DELAYS:;
#NOTES:
0000000000000000
0000000000000000
0000000000000000
0000000000000000
,
0010000000000000
0001000000000000
0000010000000000
0001000000000000
,
0000000000100000
0000000000010000
0000000000000100
0000000000010000
,
0000000010000101
0000000010000101
0000000000110000
0000000000110000
,
0000000001000101
0000000000110100
0000000010100010
0000000000110100
,
0000000001000000
0000000000110000
0000010000000000
0001010000000000
,
0000000000100000
0001000000110000
0000010000000000
0001010000010000
,
0000001000000000
0000010000000000
0100000000000000
0000001000000000
,
1011000000000000
1000000100000000
0001010100000000
1000000100000000
,
0000000000000000
0100000000000000
0001010000000000
0000001000000000
,
0000000000110000
0000000001000000
0000000000010100
0000000011000000
,
0000000001000000
0000000001000000
0000000000000100
0000000000000100
,
0000000000110100
0000000010000001
0000000000000000
0000000000000000
0000000000000000
0000000000000100
0000000001000000
0000000000100000
,
0000000101000000
0000000000000000
0000000000000000
0000000000000000
0000000000000000
0000000000100000
0000010000000000
0000001000000000
,
0000010010000000
0000000000000000
0000000000000000
0000000000000000
0000000000000000
0000010000000000
0000000000100000
0000010000000000
,
0000000000100000
0000000000100000
0000000001000000
0000000000000010
,
0000000000110000
0000000010100001
0000000000000000
0000000000000000
,
0000000010100000
0000000000000101
0000000010100000
0000000000000101
,
0000000001011000
0000000000110000
0000000001011000
0000000000110000
,
0000010000000000
0000010000000000
0000001000000000
0000001000000000
,
0001100000000000
0001000000000000
0000000110000000
0000000000001000
,
0000000000000000
0000000000000000
0000000000000000
0000000000000000
,
0000000000000101
0000000010100000
0000000000000101
0000000010100000
,
0000000000000011
0000000000100010
0000000000000011
0000000000100010
,
0000000000000011
0000000000100010
0000000011000000
0000000011000000
,
0000000011000000
0000000000000000
0000000001000000
0000001000000000
0100000000000000
0000000000000000
0000000000000000
0000000000000000
,
0000010100000000
1010000000000000
0000001000000000
0000001000000000
,
0000010100000000
1010000000000000
0000001000000000
0000001000000000
,
0100110000000000
0100000000000000
0100000000000000
0100000000000000
,
0001000000000000
0001100000000000
1000000100000000
0000100000000000
,
0000010100000000
1010000000000000
0000010100000000
1010000000000000
,
0001101000000000
0001010000000000
0001101000000000
0001010000000000
,
0000001000000000
0000111000000000
0000000000100000
0000000001101000
,
0000000000000010
0000000000001110
0000000000000010
0000000010000001
,
0000000000110000
0000000000110000
0000000000000011
0000000000000011
,
0000000000010100
0000000000010100
0000000011000000
0000000011000000
,
0000000000000010
0000000001000000
0000000000000010
0000000001000000
,
0000000000000100
0000000000000100
0000000000110100
0000000010000001
,
0000001001000000
0000000000110100
0000000000110100
0000000000001000
,
0000000000001000
0000000000010000
0001000000000000
0000000000110000
,
0001010000000000
0000010000000000
0001010000010000
0000000000100000
,
0001000000110000
0000000000000000
0000000000100000
0000010000000000
0000000000100000
0000000000000000
0000010000000000
0000001000000000
,
0100000000000000
1010000000000000
0000001100000000
1010000000000000
,
0000001100000000
0001010000000000
0000000001000000
0000000000110000
,
0000000000000010
0000000000000101
0000000011000000
0000000000000101
,
0000000011000000
0000000000110000
0000001000000000
0001010000000000
,
0100000000000000
0001010000000000
1000000100000000
0001010100000000
,
1000000100000000
0011000000000000
1000000100000000
1011000000000000
,
1000000100000000
0000000000000000
0000001000000000
0000001000000000
1010000000000000
0000000000000000
0000010000000000
0000010000000000
,
1100000000000000
0000000000000000
0000001000000000
0000010000000000
0000000000100000
0000001000000000
0000000000100000
0000000000100000
,
0000000000100000
0000001000110000
0000000000000000
0000000000000000
;
