#TITLE:Minefields;
#SUBTITLE:Starcraft TechnoMix;
#ARTIST:Prodigy;
#TITLETRANSLIT:;
#SUBTITLETRANSLIT:;
#ARTISTTRANSLIT:;
#CREDIT:locuuraa [from 52.mp];
#BANNER:Starcraft TechnoMix.png;
#BACKGROUND:Starcraft TechnoMix.png;
#LYRICSPATH:;
#CDTITLE:../CDTitles/3DDX.png;
#MUSIC:Starcraft TechnoMix.mp3;
#OFFSET:0.036;
#SAMPLESTART:13.000;
#SAMPLELENGTH:10.000;
#DISPLAYBPM:127.0;
#BGCHANGES:;
#NOTEDATA:;
#STEPSTYPE:ds3ddx-single;
#DESCRIPTION:Pretty;
#DIFFICULTY:Easy;
#METER:6;
#RADARVALUES:;
#BPMS:0.000=127.800,16.000=1000.000,24.000=127.800;
#STOPS:0.000=0.000,16.000=3.400,24.000=0.110;
#DELAYS:;
#NOTES:
00000000
00000000
00000000
00000000
,
00000000
00000000
00000000
00000000
,
00000000
00000000
00000000
00000000
,
00000000
00000000
00000000
00000000
,
00000000
00000000
00000000
00000000
,
00000000
00000000
00000000
00000000
,
00000000
00000000
00000000
00100000
00000000
00000100
00000000
01000000
,
00000000
00000010
00000000
01000000
00000010
11000000
00000000
00000100
,
00000000
00100000
00000000
00000100
00100000
00000101
00000000
01000000
,
00000000
00100000
00000000
00000100
00000000
00000010
00000000
01000000
,
00000000
00000010
00000000
00100000
00000000
00000010
00000000
01000000
,
00000010
11000000
00000000
00000000
00000000
00000000
00000000
00100100
,
00000000
00000000
00000000
01000000
00000000
00000010
00000000
01000010
,
00000000
00000000
00000000
00100000
00000000
00000100
00000000
01000000
,
00000000
00000010
00000000
00000010
00000000
01000000
00000000
01000000
,
00000000
00000010
00000000
00000101
00000000
01000000
00000000
10100000
,
00000000
00000010
00000000
00000000
00000000
00100000
00000000
00100000
,
00000000
00110000
00000000
00000010
00000000
00000000
00000000
00010010
,
00000000
00000000
00000000
01000000
00000000
00000100
00000000
00000100
,
00000000
00010100
00000000
01000000
00000000
00000000
00000000
00000100
,
00000000
00100001
00000000
00100000
00000000
10000100
00000000
00000100
,
00000000
00110000
00000000
00100000
00000000
00010100
00000000
00000100
,
00000000
00100000
00000000
00100100
00000000
00000000
00000000
00010000
,
00000000
10000001
00000000
00000000
00000000
00000000
00000000
00100000
,
00000000
00000100
00000000
00100001
00000000
00100001
00000000
00000100
,
00000000
00100000
00000000
10000100
00000000
10000100
00000000
01000000
,
00000000
00000010
00000000
01000000
00000000
01000000
00000000
00010010
,
00000000
00000000
00000000
00100000
00000000
00000100
00000000
01010000
,
00000000
00000000
00000000
00000000
00000000
00000101
00000000
00010100
,
00000000
10000100
00000000
00000000
00000000
00000000
00000000
00000000
,
00000000
01000100
00000000
00000000
00000000
00100010
00000000
00000000
,
00000000
01000100
00000000
00000000
00000000
00100010
00000000
00000000
,
00000000
01000010
00000000
00100000
00000000
00000100
00000000
00000000
,
00000000
01000010
00000000
00100000
00000000
00000100
00000000
00000000
,
00000000
00100100
00000000
00000010
00000000
01000000
00000000
00000100
,
00000000
00000100
00000000
00100000
00000000
00100000
00000000
00000000
,
00000000
10000010
00000000
00000000
00000000
01000001
00000000
00000000
,
00000000
00000110
00000000
00000000
00000000
01100000
00000000
00000010
,
00000000
00000100
00000000
00000010
00000000
00000000
00000000
00110000
,
00000000
00100000
00000000
10000100
00000000
01000000
00000000
00100001
,
00000000
00000010
00000000
00110000
00000000
00100001
00000000
10000100
,
00000000
01000000
00000000
00100000
00000000
00000100
00100000
00000100
,
00000000
01000000
00000000
00000010
00000000
00000000
00000000
00000010
,
00000000
01000000
01000000
00000000
00000000
00000000
00000000
01000000
,
00000000
00000010
00000010
00000000
00000000
00000000
00000000
10100000
,
00000000
00110000
00000000
00100001
00000000
00110000
00000000
00000010
,
00000000
00000100
00000000
00100000
00000000
01000000
00000000
01000010
,
00000000
00000000
00000000
01000010
00000000
00000000
00000000
00000101
,
00000000
00010100
00000000
10000100
00000000
00010100
00000000
01000000
,
00000000
00100000
00000000
00000100
00000000
00000010
00000000
01000010
,
00000000
00000000
00000000
01000010
00000000
00000000
00000000
00000010
,
00000000
01000000
00000000
00000010
00000100
00000010
00000000
01000000
,
00000000
00000010
00000000
01000000
00100000
01000000
00000000
00000010
,
00000000
00000010
00000000
01000000
00000000
01000000
00000000
00000010
,
00000000
01000000
00000000
00100000
00000000
00000100
00000000
00100100
;
#NOTEDATA:;
#STEPSTYPE:ds3ddx-single;
#DESCRIPTION:Power;
#DIFFICULTY:Medium;
#METER:6;
#RADARVALUES:;
#BPMS:0.000=127.800,16.000=1000.000,24.000=127.800;
#STOPS:0.000=0.000,16.000=3.400,24.000=0.110;
#DELAYS:;
#NOTES:
00000000
00000000
00000000
00000000
,
00000000
00000000
00000000
00000000
,
00000000
00000000
00000000
00000000
,
00000000
00000000
00000000
00000000
,
00000000
00000000
00000000
00000000
,
00000000
00000000
00000000
00000000
,
00000000
00000000
00000000
00000010
01000000
00000010
00000000
00100000
,
00000100
00000000
01000000
00000000
00000010
00000000
01000000
00000000
00000010
00000000
01000000
00000100
00000000
00000000
00100000
00000000
,
00000100
00000000
01000000
00000000
00000010
00000000
00100000
00000000
00000010
00000000
00100000
00000100
00000000
00000000
01000000
00000000
,
00000100
00000000
00100000
00000000
00000010
00000000
00100000
00000000
00000100
00000000
01000000
00000010
00000000
00000000
01000000
00000000
,
01000000
00000000
00000010
00000000
00000010
00000000
00100000
00000000
00100000
00000000
00000010
01000000
00000000
00000000
00000010
00000000
,
00100000
01001000
00000000
00000000
00000000
00000000
00000000
00100000
,
00100000
00000000
00000010
00000000
00000010
00000000
00100000
00000000
00000100
00000000
01000000
00000010
00000000
00000000
00100000
00000000
,
00000010
00000000
01000000
00000000
00000100
00000000
00100000
00000000
00000010
00000000
00100000
00000100
00000000
00000000
00100100
00000000
,
00000000
00000000
00000100
00000000
00000010
00000000
00000100
00000000
00100000
00000000
00000010
01000000
00000000
00000000
00000100
00000000
,
00000010
00100000
01000000
10000100
00000000
00100001
00000000
00000010
,
01000000
00000100
00000010
00100000
00000000
00000010
00000100
00010010
,
00000000
00000000
00000000
01100000
00000000
00000000
00000000
01000010
,
00000000
00000000
00000000
00000110
00000000
01000000
00100000
01010000
,
00000000
00000000
00000000
01000010
00000000
00000000
00000000
00000100
,
00000010
10100001
00000000
00100000
01000000
10000101
00000000
00000100
,
00000010
00110000
00000000
00100000
01000000
00010100
00000000
01000000
,
00000100
00000000
00000010
00000000
00000100
00000000
00100000
00000000
00000100
00000000
01000000
00000010
00000000
00000000
00100000
00000000
,
00000000
00000011
00000000
00000000
00000000
10000010
00000000
00100000
,
01000000
00000100
00000010
00110000
00000000
10100001
00000000
00000100
,
00000010
00100000
01000000
00010100
00000000
10000101
00000000
01000000
,
00100000
01000000
00000010
01000000
00000010
01000000
00000000
00010101
,
00000000
00000000
00000000
00000010
00100000
00000100
00000000
01001000
,
00000000
00000000
00000000
00000000
00000000
11000000
00000000
01000001
,
00000000
11000001
00000000
00000000
00000000
00000000
00000000
00000010
,
01000000
00100000
00000010
00000100
01000000
00100000
00000010
01000000
,
01000000
00000010
00000000
10100000
00000101
10100000
00000000
00000010
,
00000010
01000000
00000000
00000101
10100000
00000101
00000000
01000000
,
00100000
01000000
00000010
01000000
00000010
00100000
00000000
00000010
,
00000100
00000010
01000000
00000010
01000000
00000100
00000000
00100000
,
00000000
00000000
00000000
00100000
00000100
00100000
00000010
00100001
,
00000000
00100001
00000000
00000100
00100000
00000100
01000000
10000100
,
00000000
10000100
00000000
00000000
00000000
11000001
00000000
00100000
,
00000100
00000010
01000000
00000010
00100000
00000100
00000000
00110000
,
00000000
00100001
01000000
10000100
00000010
01000000
00000100
00100000
,
00000010
00000010
00000000
00110000
00000000
00100001
01000000
10000100
,
00000010
01000000
00000100
00100000
00000000
01000100
00100010
01000100
,
00000000
00010010
00000000
01000001
00000000
10000100
00000000
01010000
,
00000000
10100000
00000011
00000000
00000000
00000000
00000000
01101000
,
00000000
00010100
00000011
00000000
00000000
00000000
00000000
00100000
,
00000100
01000000
00100000
00000010
00000010
01000000
00000000
00000010
,
01000000
00000100
00000100
00100000
00000010
01000000
00000010
00100000
,
01000000
00100000
00000100
00100000
00000010
00100000
00000000
00000100
,
00000100
00100000
00100000
00000010
00000010
01000000
01000000
00000010
,
00000100
00000010
01000000
00000010
00100000
00000010
00000000
01000001
,
00000000
01000001
00000000
00000100
00100000
01000000
00100000
00000011
,
11000000
00000011
00000000
00100000
00000100
00000010
01000000
00000100
,
00100000
01000000
00100000
00000100
00100000
00000010
01000000
00000010
,
00100000
00000100
01000000
00000010
00100000
00000100
00100000
00000100
,
01000000
00000010
00100000
00000100
00000010
00000100
01000000
10000010
;
#NOTEDATA:;
#STEPSTYPE:ds3ddx-double;
#DESCRIPTION:Dual;
#DIFFICULTY:Medium;
#METER:6;
#RADARVALUES:;
#BPMS:0.000=127.800,16.000=1000.000,24.000=127.800;
#STOPS:0.000=0.000,16.000=3.400,24.000=0.110;
#DELAYS:;
#NOTES:
0000000000000000
0000000000000000
0000000000000000
0000000000000000
,
0000000000000000
0000000000000000
0000000000000000
0000000000000000
,
0000000000000000
0000000000000000
0000000000000000
0000000000000000
,
0000000000000000
0000000000000000
0000000000000000
0000000000000000
,
0000000000000000
0000000000000000
0000000000000000
0000000000000000
,
0000000000000000
0000000000000000
0000000000000000
0000000000000000
,
0000000000000000
0000000000000000
0000000000000000
0000000000000000
0000000000100000
0000000000000010
0000000001000000
0000000000000000
,
0000000000100000
0000000000000000
0000000001000000
0000000000000000
0000010000000000
0000000000000000
0000001000000000
0000000000000000
0000000001000000
0000000000000000
0000001000000000
0000000000000000
0000000001000000
0000001000000000
0000000000000000
0000000000000000
,
0000010000000000
0000000000000000
0000000000100000
0000000000000000
0000000001000000
0000000000000000
0000000000000010
0000000000000000
0000000001000000
0000000000000000
0000000000000010
0000000000000000
0000000000100000
0000000001000000
0000000000000000
0000000000000000
,
0000001000000000
0000000000000000
0000010000000000
0000000000000000
0100000000000000
0000000000000000
0000001000000000
0000000000000000
0010000000000000
0000000000000000
0000010000000000
0000000000000000
0100000000000000
0000001000000000
0000000000000000
0000000000000000
,
0100000000000000
0000000000000000
0100000000000000
0000000000000000
0000001000000000
0000000000000000
0000001000000000
0000000000000000
0000010000000000
0000000000000000
0000010000000000
0000000000000000
0000000000100000
0000001000000000
0000000000000000
0000000000000000
,
0000000001000000
0000000000100000
0000000001000000
0000000000000000
0000001000000000
0000010000000000
0010000000000000
0000001000000000
,
0010000000000000
0000000000000000
0010000000000000
0000000000000000
0000001000000000
0000000000000000
0000001000000000
0000000000000000
0000010000000000
0000000000000000
0000010000000000
0000000000000000
0000000000100000
0000000001000000
0000000000000000
0000000000000000
,
0000000000000010
0000000000000000
0000000000100000
0000000000000000
0000000000000100
0000000000000000
0000000001000000
0000000000000000
0000000000000010
0000000000000000
0000000001000000
0000000000000000
0000000000100000
0000010000000000
0000000000000000
0000000000000000
,
0000000000100000
0000000000000000
0000001000000000
0000000001000000
0000001000000000
0000000001000000
0000001000000000
0000000001000000
0000001000000000
0000000001000000
0000000000000000
0000000000000000
0000001000000000
0000000001000000
0000000000000000
0000000000000000
,
0000001000000000
0000010000000000
0100000000000000
0000001000000000
1010000000000000
0000010000000000
0100000000000000
0100000000000000
,
0000001000000000
0000010000000000
0100000000000000
0000001000000000
1010000000000000
0000010000000000
0000001000000000
0000001000000000
,
0000000001000000
0000000000100000
0000000000000010
0000000001000000
0000000000000101
0000000000100000
0000000000000010
0000000000000010
,
0000000001000000
0000000000100000
0000001000000000
0000001000000000
0000010000000000
0010000000000000
0000001000000000
0010000000000000
,
0001001000000000
0000000000000000
1000001000000000
0000000000000000
,
0000010000000000
0000001000000000
0010000100000000
0000000000000000
0010000000000000
0100000000000000
1000010000000000
0000000000000000
,
0000010000000000
0000001000000000
0000000000100000
0000000000000000
0000000000100000
0000000001000000
0000010000000000
0000000000000000
,
0000001000000000
0000000000000000
0000000000100000
0000010000000000
0000000000100000
0000010000000000
0000000000100000
0000010000000000
0000000000100000
0000010000000000
0000000000000000
0000000000000000
0000000000100000
0000010000000000
0000000000000000
0000000000000000
,
0000000000100000
0000000001000000
0000010000000000
0000001000000000
0000010000000000
0000001000000000
0010000000000000
0100000000000000
,
0000010000000000
0000001000000000
0100000000000000
0000001000000000
1010000000000000
0000000000000000
1010000000000000
0000000000000000
,
0000001000000000
0000010000000000
0100000000000000
0010000000000000
0001101000000000
0000000000000000
0001101000000000
0000000000000000
,
0100000000000000
0000001000000000
0000010000000000
0010000000000000
0000010000000000
0000001000000000
0000000001000000
0000000000100000
,
0000000000110000
0000000000000000
0000000001000000
0000000000000010
0000000001000000
0000000000000100
0000000000100000
0000000000000010
,
0000000000010010
0000000000000000
0000000000000000
1100000000000000
,
0100000100000000
1100000100000000
0000000000000000
0000000000000000
,
0000000000000000
0000000000000000
0000000000000000
0000000000000000
0000000000100000
0000010000000000
0000000000100000
0000001000000000
,
0000000001000000
0000000001000000
0000001000000000
0000000000100000
0000010000000000
0000000000100000
0000010000000000
0000000001000000
,
0000001000000000
0000001000000000
0000000000100000
0000010000000000
0000000001000000
0000001000000000
0000000000100000
0000010000000000
,
0000001000000000
0010000000000000
0100000000000000
0000001000000000
0100000000000000
0000001000000000
0010000000000000
0000000000000000
,
0000010000000000
0000000000000000
0000000001000000
0000000000000000
0000000001000000
0000000000000010
0000000000100000
0000000000000000
,
0000000001000000
0000000000000000
0000001000000000
0000000000000000
0010000000000000
0000010000000000
0010000000000000
0000000000000000
,
0000010000000000
0000001000000000
0000010000000000
0000000000000000
0000000000100000
0000000001000000
0000000000100000
0000000000000000
,
0000000000000100
0000000000100000
0000000000000100
0000000000000000
0000000000000000
0000000000000000
0000000011000001
0000000000000000
,
0000000000000100
0000000000100000
0000000001000000
0000001000000000
0000010000000000
0010000000000000
0100000000000000
0000000000000000
,
0010000000000000
0000000000000000
0010000000000000
0100000000000000
0000010000000000
0000001000000000
0000000000100000
0000000001000000
,
0000000000100000
0000000001000000
0000000000000010
0000000000000000
0000000000110000
0000000000000000
0000000000100000
0000000001000000
,
0000000000000100
0000000000000010
0000000001000000
0000000000000100
0000000000100000
0000000000000000
0000000000100000
0000000000100000
,
0000000000100000
0000000000010010
0000000001000000
0000001000000000
,
0101000000000000
0000000000000000
0000001000000000
0000001000000000
0010000000000000
0000010000000000
0100000000000000
0010000000000000
,
0110100000000000
0000000000000000
0000010000000000
0000001000000000
0100000000000000
0010000000000000
0100000000000000
0000001000000000
,
0101000000000000
0000001000000000
0000000001000000
0000000000010010
,
0000000001000000
0000000000000010
0000000000100000
0000000000100000
0000000000000100
0000000001000000
0000000000000010
0000000000000010
,
0000000000100000
0000000000000100
0000000000100000
0000000000000100
0000000000100000
0000000000000100
0000000000100000
0000000000000100
0000000000100000
0000000000000100
0000000000000000
0000000000000000
0000000000000000
0000000000000000
0000000000000000
0000000000000000
,
0000000000100000
0000010000000000
0000001000000000
0000001000000000
0100000000000000
0000010000000000
0010000000000000
0010000000000000
,
0000001000000000
0100000000000000
0000001000000000
0100000000000000
0000001000000000
0100000000000000
0000001000000000
0100000000000000
0000001000000000
0100000000000000
0000000000000000
0000000000000000
0000000000000000
0000000000000000
0000000000000000
0000000000000000
,
0000001000000000
0000001000000000
0100000000000000
0000001000000000
0010000000000000
0000010000000000
0000001000000000
0000000000000000
,
0000000001000000
0000000001000000
0000000000000010
0000000000000010
0000000000100000
0000000000000100
0000000000000010
0000000000000010
,
0000000000100000
0000000000000100
0000000000000010
0000000000000100
0000000000100000
0000000000000100
0000000010000010
0000000000000000
,
0000000000100000
0000000000100000
0000000001000000
0000000000000000
0000010000000000
0000010000000000
0010000000000000
0000000000000000
,
0100000000000000
0000010000000000
0010000000000000
0000001000000000
0100000000000000
0100000000000000
0000010000000000
0100000000000000
,
0001010000000000
1000000100000000
0000000000000000
0000000000000000
0000000000000000
0000000000000000
0000000000000000
0000000000000000
;
