#TITLE:美人鱼;
#SUBTITLE:Mermaid;
#ARTIST:林俊杰 (Lin Junjie);
#TITLETRANSLIT:měirényú;
#SUBTITLETRANSLIT:;
#ARTISTTRANSLIT:Línjùnjié;
#CREDIT:locuuraa [from 53.mp];
#BANNER:Mermaid.png;
#BACKGROUND:Mermaid.png;
#LYRICSPATH:;
#CDTITLE:../CDTitles/3DDX.png;
#MUSIC:Mermaid.mp3;
#OFFSET:0.206;
#SAMPLESTART:38.000;
#SAMPLELENGTH:10.000;
#DISPLAYBPM:107.0;
#BGCHANGES:;
#NOTEDATA:;
#STEPSTYPE:ds3ddx-single;
#DESCRIPTION:Pretty;
#DIFFICULTY:Easy;
#METER:2;
#RADARVALUES:;
#BPMS:0.000=107.015;
#STOPS:0.000=0.000;
#DELAYS:;
#NOTES:
00000000
00000000
00000000
00000000
,
00000000
00000000
00000000
00000000
,
00000000
00000000
00000000
00100100
,
00000000
00000100
00000000
01000000
,
00000010
01000000
00000000
00000100
,
00000000
00100000
00000000
00000100
,
00000000
00100000
00000000
00000011
,
00000000
11000000
00000000
00000010
,
00000010
01000000
00000000
10000000
,
00000000
00000001
00000000
10000000
,
00000000
00000001
00000000
00100000
,
00000000
00000100
00000000
00100000
,
00000100
00000100
00000000
00100000
,
00000100
00100000
00000100
10000000
,
00000000
00000001
00000000
01000000
,
00000000
00000010
00000000
01000000
,
00000000
00000100
00100000
00000010
,
01000000
00000010
01000000
00000001
,
00000000
10000000
00000000
00000100
,
00000000
00100000
00000000
00000010
,
00000000
01000000
00000010
01000010
,
00000000
00000000
00000000
00100000
,
00000100
00100000
00000100
00100100
,
00000000
00000000
00000000
01000000
,
00000010
00000010
01000000
01000010
,
00000000
00000000
00000000
00100000
,
00000100
00100000
00100000
00100100
,
00000000
00000000
00000000
11000000
,
00000000
00000011
00000000
01000000
,
01000000
00000010
00000010
00100000
,
00000100
00100000
00000100
10000000
,
00000000
00000001
00000000
01000000
,
00000000
00000010
00000000
00000010
,
00000000
00100000
00000100
01000000
,
00000010
01000000
00000010
10000000
,
00000000
00000001
00000000
00100000
,
00100000
00000100
00000100
01000000
,
10000000
00000010
00000001
00010000
;
#NOTEDATA:;
#STEPSTYPE:ds3ddx-single;
#DESCRIPTION:Power;
#DIFFICULTY:Medium;
#METER:4;
#RADARVALUES:;
#BPMS:0.000=107.015;
#STOPS:0.000=0.000;
#DELAYS:;
#NOTES:
00000000
00000000
00000000
00000000
,
00000000
00000000
00000000
00000000
,
00000000
00000000
00000000
01000010
,
00000000
00000000
00100000
00000100
00100000
00000100
00100100
00000000
,
00000010
00100000
00000010
00100000
00000010
00100000
00000001
00000000
,
00000000
01000000
00000000
00000010
,
00000000
00000000
01000000
00000000
00000010
00000000
01000000
00000100
,
01000000
00000000
00000010
01000000
00000010
00010000
01000000
00000010
,
00000010
00100000
00000100
00000000
01000000
00000001
01000000
00000000
,
01000010
00000100
00010100
00100000
,
00110000
00000000
00000010
00010000
00000010
00000000
01000000
00010000
,
01000000
00000000
00000010
00000000
00000010
00000000
01000000
01000000
,
00000100
00000010
01000000
00100000
00000100
00000000
01000000
00000100
,
01000000
00000000
00010100
00100000
00000100
00000100
01000000
00000000
,
01000000
00000000
00000010
01000000
00000010
00000010
01000001
00000000
,
10000010
01000001
10000010
01000010
,
00000000
00010000
00000000
00010000
00000000
00000001
10000000
00000000
,
01000010
00000000
00110000
00000100
00100000
00100000
00000010
00000000
,
00000010
00000000
01000000
00000010
01000000
01000000
10000010
00000000
,
01000001
10000010
01000001
01000010
,
01000010
00010000
00000000
00010000
00000000
10000000
00000001
00000000
,
00000000
00000000
00000000
00100000
,
00000100
00100000
00000100
01000000
,
00000010
00000001
01000000
00000001
10000000
00000000
00000010
01000000
,
00000100
01000000
00000001
10000000
00000100
00000000
00100000
00000000
,
00000000
00000000
00000000
00000000
00100000
00000000
00000010
01000000
,
00000010
00100000
00000100
00000100
10000000
00000000
00000010
00000000
,
01000000
10000000
00000010
10000000
00000001
00000000
01000000
00000000
,
00000000
00000010
00000000
01000000
,
00000010
00000000
01000000
00000000
00000010
00000000
01000000
00000100
,
01000000
00000000
00010100
00100000
00000100
00000100
01000000
00000000
,
01000000
00000000
00000010
01000000
00000010
00000010
01000001
00000000
,
10000010
01000001
10000010
01000010
,
00000000
00010000
00000000
00010000
00000000
00000001
10000000
00000000
,
01000010
00000000
00110000
00000100
00100000
00100000
00000010
00000000
,
00000010
00000000
01000000
00000010
01000000
01000000
10000010
00000000
,
01000001
00000000
10000010
00000000
01000001
00000000
01000010
00010000
,
00000000
10000000
00000000
00000001
00000000
00000000
00110000
00000000
;
#NOTEDATA:;
#STEPSTYPE:ds3ddx-double;
#DESCRIPTION:Dual;
#DIFFICULTY:Medium;
#METER:4;
#RADARVALUES:;
#BPMS:0.000=107.015;
#STOPS:0.000=0.000;
#DELAYS:;
#NOTES:
0000000000000000
0000000000000000
0000000000000000
0000000000000000
,
0000000000000000
0000000000000000
0000000000000000
0000000000000000
,
0000000000000000
0000000000000000
0000000000000000
0100001000000000
,
0000000000000000
0000000000000000
0000010000000000
0000000000100000
0000010000000000
0000000000100000
0000010000100000
0000000000000000
,
0000000001000000
0000010000000000
0000000001000000
0000010000000000
0000000001000000
0000010000000000
0000000000010000
0000000000000000
,
0000000000000000
0000000000000010
0000000000000000
0000000001000000
,
0000000000000000
0000000000000000
0000000000000010
0000000000000000
0000000001000000
0000000000000000
0000000000000010
0000000000100000
,
0000000000000010
0000000000000000
0000000001000000
0000000000000010
0000000001000000
0000000000010000
0000000000000010
0000000001000000
,
0000000001000000
0000010000000000
0010000000000000
0000000000000000
0000001000000000
1000000000000000
0000001000000000
0000000000000000
,
0100001000000000
0000010000000000
0001010000000000
0010000000000000
,
0011000000000000
0000000000000000
0000001000000000
0001000000000000
0000001000000000
0000000000000000
0100000000000000
0001000000000000
,
0100000000000000
0000000000000000
0000001000000000
0000000000000000
0000000000100000
0000000000000000
0000000001000000
0000000001000000
,
0000000000000100
0000000000000010
0000000001000000
0000000000100000
0000000000000100
0000000000000000
0000000001000000
0000000000000100
,
0000000001000000
0000000000000000
0000000000010100
0000000000100000
0000000000000100
0000000000000100
0000000001000000
0000000000000000
,
0000000001000000
0000000000000000
0000001000000000
0100000000000000
0000001000000000
0000001000000000
0100000100000000
0000000000000000
,
1000001000000000
0100000100000000
1000001000000000
0100001000000000
,
0000000000000000
0001000000000000
0000000000000000
0001000000000000
0000000000000000
0000000100000000
1000000000000000
0000000000000000
,
0100001000000000
0000000000000000
0011000000000000
0000010000000000
0010000000000000
0010000000000000
0000001000000000
0000000000000000
,
0000001000000000
0000000000000000
0000000001000000
0000000000000010
0000000001000000
0000000001000000
0000000010000010
0000000000000000
,
0000000001000001
0000000010000010
0000000001000001
0000000001000010
,
0000000001000010
0000000000010000
0000000000000000
0000000000010000
0000000000000000
0000000010000000
0000000000000001
0000000000000000
,
0000000000000000
0000000000000000
0000000000000000
0000000000100000
,
0000000000000100
0000000000100000
0000000000000100
0000000001000000
,
0000000000000010
0000000000000001
0000000001000000
0000000000000001
0000000010000000
0000000000000000
0000000000000010
0000000001000000
,
0000000000000100
0000000001000000
0000000000000001
0000000010000000
0000000000000100
0000000000000000
0000000000100000
0000000000000000
,
0000000000000000
0000000000000000
0000000000000000
0000000000000000
0000001000000000
0000000000000000
0100000000000000
0000001000000000
,
0100000000000000
0000010000000000
0010000000000000
0010000000000000
0000000100000000
0000000000000000
0100000000000000
0000000000000000
,
0000001000000000
0000000100000000
0100000000000000
0000000100000000
1000000000000000
0000000000000000
0000001000000000
0000000000000000
,
0000000000000000
0100000000000000
0000000000000000
0000001000000000
,
0100000000000000
0000000000000000
0000001000000000
0000000000000000
0100000000000000
0000000000000000
0000001000000000
0010000000000000
,
0000001000000000
0000000000000000
0011000000000000
0000010000000000
0010000000000000
0010000000000000
0000001000000000
0000000000000000
,
0000001000000000
0000000000000000
0000000001000000
0000000000000010
0000000001000000
0000000001000000
0000000010000010
0000000000000000
,
0000000001000001
0000000010000010
0000000001000001
0000000001000000
,
0000000001000010
0000000000010000
0000000000000000
0000000000010000
0000000000000000
0000000000000001
0000000010000000
0000000000000000
,
0000000001000010
0000000000000000
0000000000010100
0000000000100000
0000000000000100
0000000000000100
0000000001000000
0000000000000000
,
0000000001000000
0000000000000000
0000001000000000
0100000000000000
0000001000000000
0000001000000000
0100000100000000
0000000000000000
,
1000001000000000
0000000000000000
0100000100000000
0000000000000000
1000001000000000
0000000000000000
0000001000000000
0000000010000000
,
0000000000000000
0000000000010000
0000000000000000
0000000000011000
0000000000000000
0000000000010000
0000000000000010
0000000000000000
;
