#TITLE:今天你要嫁給我;
#SUBTITLE:Marry Me Today;
#ARTIST:陶喆 feat. 蔡依林 (David Tao feat. Jolin Tsai);
#TITLETRANSLIT:jīntiān nǐ yào jià gěi wǒ;
#SUBTITLETRANSLIT:;
#ARTISTTRANSLIT:Táozhé feat. Càiyīlín;
#CREDIT:locuuraa [from 04.mp];
#BANNER:Marry Me Today.png;
#BACKGROUND:Marry Me Today.png;
#LYRICSPATH:;
#CDTITLE:../CDTitles/3DDX.png;
#MUSIC:Marry Me Today.mp3;
#OFFSET:-0.264;
#SAMPLESTART:29.000;
#SAMPLELENGTH:10.000;
#DISPLAYBPM:90.0;
#BGCHANGES:;
#NOTEDATA:;
#STEPSTYPE:ds3ddx-single;
#DESCRIPTION:Pretty;
#DIFFICULTY:Easy;
#METER:2;
#RADARVALUES:;
#BPMS:0.000=92.500;
#STOPS:0.000=0.000;
#DELAYS:;
#NOTES:
00000000
00000000
00000000
00000000
,
00000000
00000000
00000000
00000000
,
00000000
00000000
00000000
00000000
,
00000000
00010100
00000000
00010100
,
00000000
01000000
00000000
00000010
,
00000000
00110000
00000000
00110000
,
00000000
00000010
00000000
01000000
,
00000000
00010100
00000000
10100001
,
00000000
00000100
00000000
00000010
,
00000000
10100001
00000000
00000010
,
00000000
01000000
00000000
00000010
,
00000000
10000000
00000001
00000000
,
10000001
00000000
00000100
00000000
,
00100000
00000000
00000100
00000000
,
00100000
00000100
00100000
00000100
,
00000000
01000000
00000000
00000010
,
00000000
11000000
00000000
00000100
,
00000000
00100000
00000000
00000010
,
00000000
01000000
00000000
00100000
,
00000000
00000100
00000000
00000010
,
00000000
11000000
00000000
00000011
,
00000000
01000000
00000000
00000010
,
00000000
00000100
00000000
00100000
,
00000000
00100000
00000000
00000100
,
00000000
11000000
00000000
00000011
,
00000000
01000000
00000000
00000010
,
00000000
01000000
00000000
00100000
,
00000000
00000100
00100000
00010100
,
00000000
00100000
00000100
00110000
,
00000000
00010100
00000000
00010100
,
00000000
01000000
00000000
00000010
,
00000000
00100000
00000100
00110000
,
00000000
00000100
00100000
00010100
,
00000000
00110000
00000000
00110000
,
00000000
00000010
00000000
01000000
,
00000000
01000010
01000010
00000000
,
00100100
00000000
00000000
00000000
;
#NOTEDATA:;
#STEPSTYPE:ds3ddx-single;
#DESCRIPTION:Power;
#DIFFICULTY:Medium;
#METER:2;
#RADARVALUES:;
#BPMS:0.000=92.500;
#STOPS:0.000=0.000;
#DELAYS:;
#NOTES:
00000000
00000000
00000000
00000000
,
00000000
00000000
00000000
00000000
,
00000000
00000000
00000000
00000000
,
00000000
10000100
00100001
00100001
,
10000100
01000000
00000000
00000010
,
00000000
00100001
10000100
10000100
,
00100001
00000010
00000000
01000000
,
00000000
00000000
00000100
00100000
00000011
00000000
00100000
00000100
,
11000000
00000000
00000100
00000000
00100000
00000000
00000010
01000000
,
00000010
00000000
10100001
00000000
00000000
00000000
01000000
00000010
,
00110000
00000000
10100000
00000000
00110000
00000000
00000010
01000000
,
00000011
00000000
11000000
00000000
00000011
00000000
10100000
00000101
,
00100100
00000010
01010000
01000000
,
00010010
10100000
00000100
00000011
,
01000000
00000000
00000100
00100000
00100101
00000000
00000010
01000000
,
11000010
00000010
00000100
01000000
,
00100000
00000000
00000010
00000010
00100000
00000100
01000000
01000000
,
00000011
00110000
00100100
00010100
,
00100100
00000000
01000000
01000000
00000100
00100000
00000010
00000010
,
11000000
00000100
00000010
00100000
,
01000000
10000010
10000010
01000001
,
01000001
00000010
00000100
01000000
,
00100000
00000000
00000010
00100000
00000010
01000000
00000100
00000010
,
01000000
00000100
00000010
00100000
,
01000000
10000010
10000010
01000001
,
01000001
00000010
00000100
01000000
,
00100000
00000010
01000000
00000100
,
00100000
00000000
00000100
00000010
00100000
01000000
00000100
00010000
,
10000101
00000000
00100000
01000000
00000100
00000010
00100000
00010000
,
10100001
10000010
01000001
01000001
,
10000010
00000000
01000000
00000010
01000000
00000000
00000010
01000000
,
00000010
00000000
00100000
01000000
00000100
00000010
00100000
00010000
,
10100001
00000000
00000100
00000010
00100000
01000000
00000100
00010000
,
10000101
01000001
10000010
10000010
,
01000001
00000000
00000010
01000000
00000010
00000000
01000000
00000010
,
01000000
01000010
01000010
00000000
,
10000101
00000000
00000000
00000000
;
#NOTEDATA:;
#STEPSTYPE:ds3ddx-double;
#DESCRIPTION:Dual;
#DIFFICULTY:Medium;
#METER:2;
#RADARVALUES:;
#BPMS:0.000=92.500;
#STOPS:0.000=0.000;
#DELAYS:;
#NOTES:
0000000000000000
0000000000000000
0000000000000000
0000000000000000
,
0000000000000000
0000000000000000
0000000000000000
0000000000000000
,
0000000000000000
0000000000000000
0000000000000000
0000000000000000
,
0000000000000000
0000001000010000
0001000001000000
0001000001000000
,
0000001000010000
0000000001000000
0000001001000000
0000001000000000
,
0000001001000000
0001000000100000
0000010000010000
0000010000010000
,
0001000000100000
0000010000000000
0000010000100000
0000000000100000
,
0000010000100000
0000000000000000
0000001000000000
0000010000000000
1010000000000000
0000000000000000
0100000000000000
0010000000000000
,
0000010100000000
0000000000000000
0000001000000000
0000000000000000
0100000000000000
0000000000000000
0000010000000000
0010000000000000
,
0000010000000000
0000000000000000
0000010000100000
0000000000000000
0000000000000000
0000000000000000
0000000001000000
0000000000000010
,
0000000000110000
0000000000000000
0000000010100000
0000000000000000
0000000000110000
0000000000000000
0000000000000010
0000000001000000
,
0000000000000011
0000000000000000
0000000001000000
0000000000000000
0000001000000000
0000000000000000
0001010000000000
0001101000000000
,
0000011000000000
0100000000000000
0001001000000000
0000001000000000
,
0101000000000000
0000010100000000
0010000000000000
1100000000000000
,
0000001000000000
0000000000000000
0010000000000000
0000010000000000
1010010000000000
0000000000000000
0000010000000000
0000001000000000
,
0001011000000000
0000001000000000
0000000001000000
0000000000100000
,
0000000000000100
0000000000000000
0000000001000000
0000000001000000
0000000000000100
0000000000100000
0000000000000010
0000000000000010
,
0000000011000000
0000000000010100
0000000000100100
0000000000110000
,
0000000001100000
0000000000000000
0000000001000000
0000000001000000
0000010000000000
0000000000100000
0000001000000000
0000001000000000
,
0001010000000000
0010000000000000
0100000000000000
0000010000000000
,
0000001000000000
0100000100000000
0100000100000000
1000001000000000
,
1000001000000000
0100000000000000
0010000000000000
0000001000000000
,
0000010000000000
0000000000000000
0000001000000000
0010000000000000
0000001000000000
0100000000000000
0000010000000000
0000001000000000
,
0000000001000000
0000000000100000
0000000000000101
0000000000000100
,
0000000010100000
0000000000000010
0000000010000010
0000000001000000
,
0000000001000001
0000000000000010
0000000000000100
0000000001000000
,
0000000000100000
0000000000000010
0000000001000000
0000000000000100
,
0000000000100000
0000000000000000
0000000000000100
0000000000000010
0000000000100000
0000000001000000
0000000000100000
0000000000010000
,
0001000000100000
0000000000000000
0000000000100000
0000000001000000
0000010000000000
0000001000000000
0000010000000000
0001000000000000
,
1000010000000000
0100000000000000
0000001000000000
0000000001000000
,
0000000000000010
0000000000000000
0000000000000010
0000000001000000
0000000000100000
0000000000000000
0000000000100000
0000000001000000
,
0000000000000010
0000000000000000
0000000000100000
0000000001000000
0000000000000100
0000000000000010
0000000000100000
0000000000010000
,
0000000010100001
0000000000000000
0000000000000100
0000000000000010
0000000000100000
0000000001000000
0000000000000100
0000000000010000
,
0000000010000101
0000000000000010
0000000001000000
0000001000000000
,
0100000000000000
0000000000000000
0100000000000000
0000001000000000
0000010000000000
0000000000000000
0000010000000000
0000001000000000
,
0100000000000000
0000000110000000
0001000000010000
0000000000000000
,
0001100000011000
0000000000000000
0000000000000000
0000000000000000
;
