#TITLE:Mambo No.5 (2ndStep);
#SUBTITLE:;
#ARTIST:L.B.;
#TITLETRANSLIT:;
#SUBTITLETRANSLIT:;
#ARTISTTRANSLIT:;
#CREDIT:locuuraa [from 39.mp];
#BANNER:Mambo No.5 2ndStep.png;
#BACKGROUND:Mambo No.5 2ndStep.png;
#LYRICSPATH:;
#CDTITLE:../CDTitles/3DDX.png;
#MUSIC:Mambo No.5 2ndStep.mp3;
#OFFSET:-0.208;
#SAMPLESTART:10.000;
#SAMPLELENGTH:10.000;
#DISPLAYBPM:178.0;
#BGCHANGES:;
#NOTEDATA:;
#STEPSTYPE:ds3ddx-single;
#DESCRIPTION:Pretty;
#DIFFICULTY:Easy;
#METER:6;
#RADARVALUES:;
#BPMS:0.000=177.640;
#STOPS:0.000=0.000;
#DELAYS:;
#NOTES:
00000000
00000000
00000000
00000000
,
00000000
00000000
00000000
00000000
,
00000000
00000000
00000000
00000000
,
00000000
00000000
00000000
00000000
,
00100000
00000000
00000100
00000000
,
00100000
00100000
00100000
00000000
,
00000010
00000000
01000000
00000000
,
00000010
00000010
00000010
00000000
,
00110000
00000000
00010100
00000000
,
01000000
00000010
01000000
00000000
,
00000011
00000000
11000000
00000000
,
00000100
00100000
00000100
00000000
,
11000000
00000000
00000010
00000000
,
01000000
00100000
01000000
00000000
,
00010100
00000000
00010100
00000000
,
11000000
00000000
00000011
00000000
,
00100000
00000100
00100000
00000100
,
11000000
00000000
00000011
00000000
,
01000000
00000010
01000000
00000010
,
00110000
00000000
00010100
00000000
,
11000000
00000000
00100000
00000000
,
00000011
00000000
00000100
00000000
,
00100000
00000100
01000000
00000010
,
00100000
00100000
00000101
00000000
,
01000000
00000000
00100000
00000000
,
00000100
00000000
00000100
00000100
,
00100000
00000000
00000100
00000000
,
00000010
00000000
01000000
01000000
,
00000010
00000000
01000000
00000000
,
00000010
00000000
00100000
00000100
,
11000000
00000000
00000000
00000011
,
00000000
00000000
00000000
00000000
,
00110000
00000000
10100000
00000000
,
00010100
00000000
00000101
00000000
,
00100000
00000000
01010000
00000000
,
00000100
00000000
00010010
00000000
,
01000000
00000010
01000000
00000000
,
00000010
01000000
00000010
00000000
,
00100000
00000100
01000000
00000000
,
00000100
00100000
00000010
00000000
,
00100000
00000000
01000000
00000000
,
00000100
00000000
00000010
00000000
,
00110000
00000000
00110000
00000000
,
00000011
00000000
11000000
00000000
,
00010100
00000000
00010100
00000000
,
11000000
00000000
00000011
00000000
,
01000000
00000010
00100000
00000100
,
00100000
00000010
01000000
00000000
,
00000101
00000000
00110000
00000000
,
00010100
00000000
10100000
00000000
,
00000010
00000010
00100000
00000100
,
01000000
01000000
00000010
00000000
,
10100000
00000000
00110000
00000000
,
00000101
00000000
00010100
00000000
,
01000000
01000000
00000100
00100000
,
00000010
00000010
01000000
00000000
,
00000101
00000000
10100000
00000000
,
00000010
00000000
01000000
01000000
,
00000101
00000000
10100000
00000000
,
00000010
00000000
01000000
00000000
,
00000100
00100000
01000000
00000010
,
11000000
00000000
00000011
00000000
,
00110100
00000000
00000000
00110100
;
#NOTEDATA:;
#STEPSTYPE:ds3ddx-single;
#DESCRIPTION:Power;
#DIFFICULTY:Medium;
#METER:7;
#RADARVALUES:;
#BPMS:0.000=177.640;
#STOPS:0.000=0.000;
#DELAYS:;
#NOTES:
00000000
00000000
00000000
00000000
,
00000000
00000000
00000000
00000000
,
00000000
00000000
00000000
00000000
,
00000000
00000000
00000000
00000000
,
00100000
00000100
00000010
00000100
,
00100000
00000010
01000001
00000000
,
00000100
00100000
01000000
00100000
,
00000100
01000000
10000010
00000000
,
00100000
00010000
01000000
00000001
,
00000100
00010000
00000010
00000000
,
00000100
00010000
00000010
10000000
,
00100000
00010000
01000000
00000001
,
00000000
00000010
00000100
00100000
,
01000000
00000010
01000000
00000001
,
01000000
00100000
00000100
00000010
,
01000000
00000010
10000000
00000001
,
00000100
00100000
00000000
00000000
00000100
00100000
00000000
00000000
00000100
01000000
00000000
00000000
00000100
01000000
00000000
00000000
,
00000100
00000010
00000000
00000000
00000100
00000010
00000000
00000000
00000100
00000010
00000000
00000000
00000000
00000000
00000000
00000000
,
00000100
00000010
00000000
00000000
00000100
00000010
00000000
00000000
00000100
01000000
00000000
00000000
00000100
01000000
00000000
00000000
,
00000100
00100000
00000000
00000000
00000100
00100000
00000000
00000000
00000100
00100000
00000000
00000000
00000000
00000000
00000000
00000000
,
00000010
00000100
00000000
00000000
00000000
00000000
00000000
00000000
00000100
00100000
00000000
00000000
00000000
00000000
00000000
00000000
,
00100000
01000000
00000000
00000000
00000000
00000000
00000000
00000000
01000000
00000010
00000000
00000000
00000000
00000000
00000000
00000000
,
01000000
00100000
00000100
00000010
,
00000010
00000100
00100000
01000000
,
00000011
11000000
00000000
00000000
,
00010100
00000000
01000000
00000010
,
11000000
00000011
00000000
00000000
,
00110000
00000000
10000101
00000000
,
11100000
00000000
00000111
00000000
,
00110100
00000000
01000010
00000100
,
10100001
00000000
00000000
10000101
,
00000000
00000000
00000000
00000000
,
00010000
10000000
00010000
00000000
00000100
00000010
00100000
00000000
,
10000000
00011000
10000000
00000000
00100000
00000100
01000000
00000000
,
00011000
00000001
00011000
00000000
01000000
00100000
00000010
00000000
,
00000001
00010000
00000001
00000000
00000010
01000000
00000100
00000000
,
01000000
00100000
00000010
00000100
,
10100000
00000000
00000101
00000000
01000000
00100000
01000000
00000100
,
01000000
00100000
00000010
00000100
,
11000000
00000000
00000011
00000000
01000000
00100000
01000000
00000100
,
00100000
00000100
00000010
01000000
,
00000011
00000000
11000000
00000000
00000010
00000100
00000010
00100000
,
00000100
00000010
00100000
01000000
,
00000101
00000000
10100000
00000000
00000010
00000100
00000010
00100000
,
00000100
00100000
01000000
00000010
,
11000000
00000000
00000011
00000000
00100000
00000100
01000000
00000010
,
01000000
00000010
00100000
00000100
,
01000000
01000000
00000010
00000010
,
10100000
00000000
00000101
00000000
00100000
00000100
00100000
00000000
,
00000011
00000000
11000000
00000000
00000010
01000000
00000010
00000000
,
01000000
00110000
00000010
00010100
,
01000000
00000010
00100000
00000100
,
00100000
00100101
00000100
10100100
,
00000010
01010000
01000000
00010010
,
01000000
00100000
00000100
00000010
,
00000010
00000100
00100000
01000000
,
00000011
11000000
00000000
00000000
,
00010100
00000000
01000000
00000010
,
11000000
00000011
00000000
00000000
,
00110000
00000000
00100100
00000000
,
00000011
11000000
00000000
00000000
,
01000010
00000000
00000100
00100000
,
10000101
00000000
00000000
01001000
;
#NOTEDATA:;
#STEPSTYPE:ds3ddx-double;
#DESCRIPTION:Dual;
#DIFFICULTY:Medium;
#METER:7;
#RADARVALUES:;
#BPMS:0.000=177.640;
#STOPS:0.000=0.000;
#DELAYS:;
#NOTES:
0000000000000000
0000000000000000
0000000000000000
0000000000000000
,
0000000000000000
0000000000000000
0000000000000000
0000000000000000
,
0000000000000000
0000000000000000
0000000000000000
0000000000000000
,
0000000000000000
0000000000000000
0000000000000000
0000000000000000
,
0000000000100000
0000000000000100
0000000000000010
0000000000000100
,
0000000000100000
0000000000000010
0000000001000001
0000000000000000
,
0000000000000100
0000000000100000
0000000001000000
0000001000000000
,
0000010000000000
0010000000000000
1000010000000000
0000000000000000
,
0010000000000000
0001000000000000
0100000000000000
0000000100000000
,
0000010000000000
0001000000000000
0000001000000000
0000000000000000
,
0000010000000000
0000000000010000
0000000000100000
0001000000000000
,
0000010000000000
0000000000100000
0000010000000000
0000000000110000
,
0000000000000000
0000000001000000
0000000000100000
0000000000000100
,
0000000000000010
0000000001000000
0000000000000010
0000000010000001
,
0000000001000000
0000000000100000
0000000000000100
0000000000000010
,
0000000001000000
0000000000000010
0000000010000000
0000000000000001
,
0000000001000000
0000000000100000
0000000000000100
0000000000000010
,
0000000001000000
0000001000000000
1100000000000000
0000000000000000
,
0000001000000000
0000010000000000
0010000000000000
0100000000000000
,
0000001000000000
0000000001000000
0000000000000011
0000000000000000
,
0000000001000010
0000000000000000
0000010000100000
0000000000000000
,
0000001001000000
0000000000000000
0010010000000000
0000000000000000
,
0100000000000000
0010000000000000
0000010000000000
0000001000000000
,
0000001000000000
0000010000000000
0000000000100000
0000000001000000
,
0000001001000000
0000001001000000
0000000000000000
0000000000000000
,
1100000000000000
0000000000000000
0000010000000000
0000000000100000
,
0000010000100000
0000010000100000
0000000000000000
0000000000000000
,
0000000000000101
0000000000000000
0000000010000101
0000000000000000
,
0000000011100000
0000000000000000
0000000000000111
0000000000000000
,
0000000000110100
0000000000000000
0000000001000010
0000000000000100
,
0000000010100001
0000000000000000
0000000000000000
0000000010000101
,
0000000000000000
0000000000000000
0000000000000000
0000000000000000
,
0000000000010000
0000000010000000
0000000000010000
0000000000000000
0000000000000100
0000000000000010
0000000000100000
0000000000000000
,
0000000010000000
0000000000011000
0000000010000000
0000000000000000
0000000000100000
0000000000000100
0000000001000000
0000000000000000
,
0000000000011000
0000000000000001
0000000000011000
0000000000000000
0000000001000000
0000000000100000
0000000000000010
0000000000000000
,
0000000000000001
0000000000010000
0000000000000001
0000000000000000
0000000000000010
0000000001000000
0000000000000100
0000000000000000
,
0000000001000000
0000000000100000
0000000000100000
0000010000000000
,
0000000000110000
0000000000000000
0001010000000000
0000000000000000
0000001000000000
0000010000000000
0000001000000000
0010000000000000
,
0000001000000000
0000010000000000
0100000000000000
0010000000000000
,
1100000000000000
0000000000000000
0000001100000000
0000000000000000
0100000000000000
0010000000000000
0100000000000000
0000010000000000
,
0010000000000000
0000010000000000
0000001000000000
0000000000000000
,
0000000001000000
0000000000000000
0000000000000000
0000000000000000
0000000000000010
0000000000000100
0000000000000010
0000000000100000
,
0000000000000100
0000000000000010
0000000000100000
0000000001000000
,
0000000000000101
0000000000000000
0000000010100000
0000000000000000
0000000000000010
0000000000000100
0000000000000010
0000000000100000
,
0000000000000100
0000000000100000
0000000001000000
0000000000000010
,
0000000011000000
0000000000000000
0000000000000011
0000000000000000
0000000000100000
0000000000000100
0000000001000000
0000000000000010
,
0000000001000000
0000000000000000
0000001000000000
0000000000000000
,
0000000000100000
0000010000000000
0000000000100000
0000010000000000
,
0001000001000000
0000000000000000
0000001000010000
0000000000000000
,
0000000001000000
0000000000100000
0000000000000100
0000000000100000
0000000001000000
0000000000000000
0000000000000000
0000000000000000
,
0000001000010000
0000000000000000
0001000001000000
0000000000000000
,
0000001000000000
0000010000000000
0010000000000000
0000010000000000
0000001000000000
0000000000000000
0000000000000000
0000000000000000
,
0000000001000000
0001010000000000
0000010000000000
0001101000000000
,
0000001000000000
0000000001011000
0000000001000000
0000000000110000
,
0000010000000000
0000001000000000
0100000000000000
0010000000000000
,
0000010000000000
0000000000000000
0000001000000000
0000000000000000
0100000000000000
0000001000000000
0100000000000000
0000000000000000
,
0000001100000000
1100000000000000
0000000000000000
0000000000000000
,
0001010000000000
0000000000000000
0100000000000000
0000001000000000
,
1100000000000000
0000001100000000
0000000000000000
0000000000000000
,
0011000000000000
0000000000000000
0010010000000000
0000000000000000
,
0000001000000000
0000000001000000
0000000000000000
0000000000000000
,
0001011000000000
0000000000000000
0100000000000000
0000001000000000
,
0000110000000000
0000000000000000
0000000000000000
0000001000100010
;
