#TITLE:爱你;
#SUBTITLE:Love You;
#ARTIST:王心凌 (Cyndi Wang);
#TITLETRANSLIT:ài nǐ;
#SUBTITLETRANSLIT:;
#ARTISTTRANSLIT:Wángxīnlíng;
#CREDIT:locuuraa [from 47.mp];
#BANNER:Love You.png;
#BACKGROUND:Love You.png;
#LYRICSPATH:;
#CDTITLE:../CDTitles/3DDX.png;
#MUSIC:Love You.mp3;
#OFFSET:-0.166;
#SAMPLESTART:46.000;
#SAMPLELENGTH:10.000;
#DISPLAYBPM:115.5;
#BGCHANGES:;
#NOTEDATA:;
#STEPSTYPE:ds3ddx-single;
#DESCRIPTION:Pretty;
#DIFFICULTY:Easy;
#METER:3;
#RADARVALUES:;
#BPMS:0.000=115.560;
#STOPS:0.000=0.000;
#DELAYS:;
#NOTES:
00000000
00000000
00000000
00000000
,
00000000
00000000
00000000
00000000
,
00000000
00000000
00000010
01000010
,
01000000
00000000
00100000
00100100
,
00000100
00000000
00100000
01000000
,
00000010
00000000
10100000
00000000
,
00000101
00000000
10000000
00000001
,
00100000
00000000
00000001
10000000
,
00000100
00000000
10100001
00000000
,
00100000
00000000
10000101
00000000
,
00000100
00000000
00000010
01000000
,
00000010
00000000
00000010
01000000
,
00000010
00000000
00100000
00000100
,
00100000
00000000
00100000
00000100
,
00100000
00000000
00000100
01000000
,
00000010
10000001
00100000
00000010
,
01000000
10000001
00000100
00000000
,
00100000
00000000
00010100
00000000
,
00110000
00000000
00010100
00000100
,
00000100
00000000
00110000
00100000
,
00100000
00000000
00000100
00000000
,
00100000
00000000
00010100
00000100
,
00000100
00000000
00000001
00000000
,
00000001
00000000
10000000
00000000
,
10000000
00000000
00000010
00000000
,
01000000
00000000
01000000
01000010
,
00000010
01000010
00000000
00000000
,
00000000
00000000
00000000
00000000
,
00000000
00000000
00000000
00000000
,
00000000
00000000
10100001
00000000
,
00100000
00000000
10000101
00000000
,
00000100
00000000
00100000
00000000
,
00100000
00000000
00100000
00100000
,
00100000
00000000
00000100
01000100
,
00000000
00000000
00100000
00100010
,
00000000
00000000
01000000
00000000
,
00000010
00000000
01000000
01000010
,
00000010
01000010
10100000
00000000
,
00100000
00000000
00000101
00000000
,
00000100
00000000
10000100
00000000
,
00100001
00000000
10000100
00000000
,
00000100
00000000
00100000
01000000
,
00100000
00000000
00000100
00000010
,
00000100
00000000
00100001
00000000
,
10000100
00000000
00100001
00000000
,
00100000
00000000
00100100
00000000
,
00000100
00000000
00100100
00000000
;
#NOTEDATA:;
#STEPSTYPE:ds3ddx-single;
#DESCRIPTION:Power;
#DIFFICULTY:Medium;
#METER:4;
#RADARVALUES:;
#BPMS:0.000=115.560;
#STOPS:0.000=0.000;
#DELAYS:;
#NOTES:
00000000
00000000
00000000
00000000
,
00000000
00000000
00000000
00000000
,
00000000
00000000
00000011
01000000
,
01000000
01000000
01000000
00000000
00000010
00000000
01000000
00000000
,
00000010
01000000
00000010
00000000
01000000
00000000
00000010
00000000
,
01000000
01000010
00000100
00100000
,
00010000
00100100
00100000
00100000
,
00000100
10000100
00100000
00100000
,
00000100
00000100
00000100
10000000
,
00100000
00000001
00100000
00000100
,
01000000
00000010
01000000
00000000
00000010
00000000
11000000
00000000
,
01000000
10000010
00000100
10100000
,
00100000
10000100
00000010
11000001
,
01000000
00000000
10000011
00000000
00000010
00000000
01000000
00000010
,
01000000
00000000
01000010
00000000
00000010
00100000
00000100
00000000
,
00100000
00000000
00100100
00000000
00000100
00000000
00100000
00000100
,
00100000
00100100
00000100
00000100
,
00100000
00100100
00000101
00000100
,
11000000
00000000
00000100
00000000
00110000
00000000
00100100
00100100
,
00100100
00000000
00000000
00000000
00000100
00000000
00100100
00100100
,
00100100
00000000
00000000
00000000
00100000
00000100
00100000
00000000
,
00010000
00000000
00010100
00000100
,
00000100
00000000
00000011
00000000
,
00000011
00000000
00000000
00000000
00000100
00000000
00000100
01000000
,
00000100
00100000
00100000
00100000
,
00010000
10000000
00000000
00000000
10000000
00000000
01000010
00000000
,
00000001
01000010
00100000
00000100
,
00100000
00000100
00100000
00000000
00000010
00000000
01000000
00000000
,
00000010
01000000
00000010
00000000
01000000
00000000
00000010
00000000
,
00000010
01000000
00000100
00000000
10100000
00000000
00100000
00000000
,
00100000
00100000
00100000
00000000
00000100
00000000
00000100
00000000
,
00000100
00000100
00000100
00000000
00100000
00000000
00000000
00000000
,
00100000
00000000
00000000
00000000
00100000
00000000
00100000
00000010
,
00100000
00000000
00000100
01000100
,
00000100
01000000
00000100
00000000
00100000
00000000
00100010
00000000
,
00100000
00000010
00100000
00000000
00000100
00000000
00000000
00000000
,
00000100
00000000
10000000
01000010
,
00000001
01000010
00100000
00100000
,
00000100
01000000
00000100
00000000
00000100
00000000
00000000
00000000
,
00000100
00000100
00000100
00000000
10000100
00000000
00100000
00000000
,
00100001
00000100
10000100
00100000
,
10100000
00000100
10100000
00000000
00000100
00000000
00000100
00000000
,
00100000
00000010
00100000
00000000
00100000
00000000
00000000
00000000
,
00100000
00100000
00100000
00000000
00100001
00000000
00000100
00000000
,
10000100
00100000
00100001
00000100
,
00000100
00100000
00000100
00000000
00100100
00000000
00000000
00000000
,
00010000
00000000
00000000
00000000
00100000
00000000
00000000
00000100
;
#NOTEDATA:;
#STEPSTYPE:ds3ddx-double;
#DESCRIPTION:Dual;
#DIFFICULTY:Medium;
#METER:4;
#RADARVALUES:;
#BPMS:0.000=115.560;
#STOPS:0.000=0.000;
#DELAYS:;
#NOTES:
0000000000000000
0000000000000000
0000000000000000
0000000000000000
,
0000000000000000
0000000000000000
0000000000000000
0000000000000000
,
0000000000000000
0000000000000000
0000001100000000
0100000000000000
,
0100000000000000
0100000000000000
0100000000000000
0000000000000000
0000001000000000
0000000000000000
0100000000000000
0000000000000000
,
0000001000000000
0100000000000000
0000001000000000
0000000000000000
0100000000000000
0000000000000000
0000001000000000
0000000000000000
,
0100000000000000
0100001000000000
0000010000000000
0010000000000000
,
0001000000000000
0010010000000000
0010000000000000
0010000000000000
,
0000010000000000
1000010000000000
0010000000000000
0010000000000000
,
0000010000000000
0000010000000000
0000010000000000
1000000000000000
,
0010000000000000
0000000100000000
0010000000000000
0000001000000000
,
0000001000000000
0000010000000000
0000000000100000
0000000000000000
0000000001000000
0000000000000000
0001101000000000
0000000000000000
,
0000001000000000
0001100001000000
0000000000100000
0001010000000000
,
0000010000000000
0001000000100000
0000000001000000
0000001000000000
,
0000001000000000
0000000000000000
0000000001000000
0000000000000000
0000001000000000
0000000000000000
0000000001000000
0000001000000000
,
0000000001000000
0000000000000000
0000001001000000
0000000000000000
0000000001000000
0000000000100000
0000000000000100
0000000000000000
,
0000000000100000
0000000000000000
0000000000100100
0000000000000000
0000000000100000
0000000000000000
0000000000000100
0000000000100000
,
0000000000000100
0000000000100100
0000000000100000
0000000000100000
,
0000000000000100
0000000000100100
0000000010100000
0000000000100000
,
0000000000000011
0000000000000000
0000000000100000
0000000000000000
0000000000110000
0000000000000000
0000000000100100
0000000000100100
,
0000000000100100
0000000000000000
0000000000000000
0000000000000000
0000000000100000
0000000000000000
0000010000100000
0000010000100000
,
0000010000100000
0000000000000000
0000000000000000
0000000000000000
0000001000000000
0000010000000000
0010000000000000
0000000000000000
,
0001000000000000
0000000000000000
0001010000000000
0000010000000000
,
0000010000000000
0000000000000000
0000001100000000
0000000000000000
,
0000001100000000
0000000000000000
0000000000000000
0000000000000000
0000010000000000
0000000000000000
0000010000000000
0100000000000000
,
0000010000000000
0010000000000000
0010000000000000
0010000000000000
,
0001000000000000
1000000000000000
0000000000000000
0000000000000000
1000000000000000
0000000000000000
0100001000000000
0000000000000000
,
0000000100000000
0100001000000000
0010000000000000
0000010000000000
,
0010000000000000
0000010000000000
0010000000000000
0000000000000000
0000001000000000
0000000000000000
0000010000000000
0000000000000000
,
0000001000000000
0000010000000000
0000001000000000
0000000000000000
0000010000000000
0000000000000000
0000000000100000
0000000000000000
,
0000000000100000
0000000001000000
0000000000000010
0000000000000000
0000000011000000
0000000000000000
0000000000000000
0000000000000000
,
0000001000000000
0000001000000000
0000001000000000
0000000000000000
0000000001000000
0000000000000000
0000000000000000
0000000000000000
,
0000000000000010
0000000000000010
0000000000000010
0000000000000000
0000000000100000
0000000000000000
0000010000000000
0000000000000000
,
0000010000000000
0000000000000000
0000010000000000
0000000000000000
0000000001000000
0000000000000000
0000000001000000
0000010000000000
,
0000000001000000
0000000000000000
0000000000100000
0000000000100010
,
0000000000100000
0000000000000010
0000000000100000
0000000000000000
0000000000000100
0000000000000000
0000000001000100
0000000000000000
,
0000000000000100
0000000001000000
0000000000000100
0000000000000000
0000000000100000
0000000000000000
0000010000000000
0000000000000000
,
0000010000000000
0000010000000000
0001000000000000
0000010000100000
,
0000000000010000
0000010000100000
0000001000000000
0000001000000000
,
0000010000000000
0000010000000000
0010000000000000
0000000000000000
,
0010000000000000
0010000000000000
0010000000000000
0000000000000000
1000010000000000
0000000000000000
0010000000000000
0000000000000000
,
0010000100000000
0000010000000000
1000010000000000
0010000000000000
,
1010000000000000
0000010000000000
1010000000000000
0000000000000000
0000001000000000
0000000000000000
0000001000000000
0000000000000000
,
0000000000100000
0000000000100000
0000000000000100
0000000000000000
,
0000000000000100
0000000000000100
0000000000000100
0000000000000000
0000000000100001
0000000000000000
0000000000000100
0000000000000000
,
0000000010000100
0000000000100000
0000000000100001
0000000000000100
,
0000000000000100
0000000000100000
0000000000000100
0000000000000000
0000000000100100
0000000000000000
0000000000000000
0000000000000000
,
0000000000010000
0000000000000000
0000000000000000
0000000000000000
0000000001000000
0000000000000000
0000000000000000
0000010000000000
;
