#TITLE:Livin' La Vida Loca;
#SUBTITLE:;
#ARTIST:Rick Smart;
#TITLETRANSLIT:;
#SUBTITLETRANSLIT:;
#ARTISTTRANSLIT:;
#CREDIT:locuuraa [from 43.mp];
#BANNER:Livin' La Vida Loca.png;
#BACKGROUND:Livin' La Vida Loca.png;
#LYRICSPATH:;
#CDTITLE:../CDTitles/3DDX.png;
#MUSIC:Livin' La Vida Loca.mp3;
#OFFSET:-0.039;
#SAMPLESTART:40.000;
#SAMPLELENGTH:10.000;
#DISPLAYBPM:178.0;
#BGCHANGES:;
#NOTEDATA:;
#STEPSTYPE:ds3ddx-single;
#DESCRIPTION:Pretty;
#DIFFICULTY:Easy;
#METER:8;
#RADARVALUES:;
#BPMS:0.000=178.000;
#STOPS:0.000=0.000;
#DELAYS:;
#NOTES:
00000000
00000000
00000000
00000000
,
00000000
00000000
00000000
00000000
,
00000000
00000000
00000000
00000000
,
00000000
00000000
00000000
00000000
,
00000000
00000000
00000000
00000000
,
00000000
00000000
00000000
00000000
,
00000000
00000000
00000000
00000000
,
00000000
00000000
00000000
00000000
,
00000000
00100000
00000100
00000000
,
00100000
00000000
00000100
01000000
,
00000000
00000010
00100000
00000000
,
00000010
00100000
00000010
00100000
,
00000000
00000100
01000000
00000000
,
00000100
00000000
00100000
00000010
,
00000000
00000100
01000000
00000000
,
00000100
00000000
00100000
00000010
,
00000000
00100000
00000010
00000000
,
01000000
00000000
00000100
01000000
,
00000000
10000001
00010000
00000000
,
00100000
00000100
01000000
00000010
,
01000000
00000000
11000000
00000000
,
00000010
00000000
00000011
00000000
,
00100000
00000000
00000100
00000000
,
00100000
00000000
00000100
00000000
,
01000000
00000000
00000010
00000000
,
01000000
00000000
00000010
00000000
,
01010000
00000000
00000000
00000000
,
00010010
00000000
00000000
00000000
,
10000001
00000000
00000000
00000000
,
00010000
10000001
10000001
00000000
,
00010000
10000000
00010000
00000001
,
00010000
10000000
00010000
00000001
,
10000000
00000001
10000000
00000001
,
00010000
10000000
00010000
00000001
,
01000000
00000000
00000010
00000000
,
01000000
00000000
00000010
00000000
,
01000000
01000000
10000100
10000100
,
00100001
00100001
00000010
00000010
,
00100000
00000000
01000000
00000000
,
00000100
00000000
00000010
00000000
,
01000000
01000000
00000100
00000100
,
00100000
00100000
00000010
00000010
,
11000000
11000000
00000011
00000011
,
00010000
11000000
00010000
00000011
,
00010000
11000000
00010000
00000011
,
00100000
00100000
00000100
00000100
,
10000001
10000001
01000000
00000010
,
10000001
10000001
00000010
01000000
,
10000001
10000001
00100000
00000100
,
10000001
10000001
00000100
00100000
,
00000010
00000010
00100000
01000000
,
00100000
00100000
00000100
00100000
,
00000010
00000010
01000000
01000000
,
00000100
00100000
00000010
00000010
,
00100000
00000100
00100000
00100000
,
00000010
01000000
00000010
00000010
,
01000000
01000000
00000100
00100000
,
00000010
00000000
01000000
00000000
,
00000100
00100000
00000100
00100000
,
00000010
00000010
01000000
01000000
,
00010000
00000001
00010000
10000000
,
00000100
00000100
00100000
00100000
,
00000001
00000001
10000000
10000000
,
00000001
10000000
00000001
10000000
,
00000010
00000000
01000000
00000000
,
00000010
01000000
00000010
00000000
,
01000000
01000000
00000010
00000010
,
00100000
00000100
00100000
00000100
,
00000001
00000000
00000001
00000000
10000000
00000000
10000000
00000001
;
#NOTEDATA:;
#STEPSTYPE:ds3ddx-single;
#DESCRIPTION:Power;
#DIFFICULTY:Medium;
#METER:7;
#RADARVALUES:;
#BPMS:0.000=178.000;
#STOPS:0.000=0.000;
#DELAYS:;
#NOTES:
00000000
00000000
00000000
00000000
,
00000000
00000000
00000000
00000000
,
00000000
00000000
00000000
00000000
,
00000000
00000000
00000000
00000000
,
00000000
00000000
00000000
00000000
,
00000000
00000000
00000000
00000000
,
00000000
00000000
00000000
00000000
,
00000000
00000000
00000001
10000000
,
00010000
00100000
00000100
01000000
,
00100000
00000010
00000100
01000000
,
00000011
00110000
00000011
00110000
,
00000011
00110000
00000011
01000000
,
00000000
00000100
01010000
00000000
,
00000100
00000000
00100000
00010010
,
00000000
00000100
01010000
00000000
,
10000100
00000000
00100001
00010010
,
00000000
00000000
00100000
00000100
00000010
00000000
00000000
00000000
,
01000100
00000000
00000000
00000000
00000100
00100000
01000000
00000000
,
00000000
11000011
00110010
00000000
,
00100000
00000100
01000000
00000010
,
11000000
00000000
11000000
00000000
,
00000011
00000000
00000011
00000000
,
00100000
01100000
00000100
00000110
,
00100000
01000001
00000100
10000010
,
01000000
00100000
00000010
00000100
,
01000000
00100001
00000010
10000100
,
01010000
00000000
00000000
00000000
,
00010010
00000000
00000000
00000000
,
10100101
00000000
00000000
00000000
,
00010000
00000000
01000010
01000010
00000000
00000000
00000000
00000000
,
00100010
00010000
00100010
00010000
,
01000100
00010000
01000100
00010000
,
00100010
00010000
01000100
00010000
,
00100010
00010000
01000100
00010000
,
01000000
00100000
00000010
00000100
,
01000000
00100001
00000010
10000100
,
01000000
00100000
00000000
00000010
,
00000000
00000000
00000100
00000100
00000000
00000000
01000000
00000000
,
00000010
00000000
00000100
00000000
01000000
00000000
00100000
00100000
,
00000000
00000010
00000100
00000100
,
01000000
00100000
01000000
00000010
01000000
00000100
00100000
00000000
,
00000100
00000000
00100000
00000000
01000000
00000010
00100000
00000000
,
00000000
10000100
00000000
01000001
,
00000000
10000010
00000000
00100001
,
00000100
00100000
01000000
00100000
00000100
00000010
00000100
00000000
,
00100000
00000000
01000000
00000000
00000010
00000100
00100000
00000000
,
10000011
10000011
01000000
00000010
,
11000001
11000000
00000010
01000000
,
10000101
00000101
00100000
00000100
,
10100001
10100001
00000100
00100000
,
00000010
00000000
00000010
00000000
00100000
00000100
01000000
00000010
,
00100000
00000000
00100000
00000000
00000100
01000000
00100000
00000100
,
00000010
00000010
01000000
01000000
,
00100000
00000100
00000010
01000001
,
00000100
00100000
01000000
10000010
,
00100000
00000100
01000000
01000000
,
00000010
00100000
00000010
01000000
00000100
01000000
00000010
00000000
,
00000010
00000010
00100000
01100000
,
00010000
00000001
00010000
00000001
,
01000000
01000000
00000100
00000110
,
00010000
10000000
00010000
10000000
,
00100100
00100100
00100100
00100100
,
10000000
00010000
00000001
00000001
,
00000001
10000000
10000000
00000001
,
00000010
00000100
00100000
01000001
,
00000100
00000010
01000000
10100000
,
00000100
00100000
00000100
10000100
,
01000000
01000000
00000010
00000010
,
00000001
10000000
00010000
10000000
00010000
10000000
01000000
00000100
;
#NOTEDATA:;
#STEPSTYPE:ds3ddx-double;
#DESCRIPTION:Dual;
#DIFFICULTY:Medium;
#METER:7;
#RADARVALUES:;
#BPMS:0.000=178.000;
#STOPS:0.000=0.000;
#DELAYS:;
#NOTES:
0000000000000000
0000000000000000
0000000000000000
0000000000000000
,
0000000000000000
0000000000000000
0000000000000000
0000000000000000
,
0000000000000000
0000000000000000
0000000000000000
0000000000000000
,
0000000000000000
0000000000000000
0000000000000000
0000000000000000
,
0000000000000000
0000000000000000
0000000000000000
0000000000000000
,
0000000000000000
0000000000000000
0000000000000000
0000000000000000
,
0000000000000000
0000000000000000
0000000000000000
0000000000000000
,
0000000000000000
0000000000000000
0000000100000000
1000000000000000
,
0001000000000000
0010000000000000
0000010000000000
0000000001000000
,
0000001000000000
0000000001000000
0000001000000000
0000001000000000
,
0000000001000000
0000010000000000
0000000001000000
0000010000000000
,
0000000001000000
0000010000000000
0000000001000000
0000001000000000
,
0000000000000000
0010000000000000
0001001000000000
0000000000000000
,
0000000000100000
0000000000000000
0000000000000100
0000000001010000
,
0000000000000000
0000010000000000
0101000000000000
0000000000000000
,
0000010000000000
0000000000000000
0000000000100000
0000000000000010
,
0000000000000000
0000000000000000
0000000000000100
0000000000100000
0000000001000000
0000000000000000
0000000000000000
0000000000000000
,
0000001000000000
0000000000000000
0000000000000000
0000000000000000
0000010000000000
0010000000000000
0100000000000000
0000000000000000
,
0000000000000000
0000100000000000
0000000010000000
0000000000000000
,
0000000000000100
0000000000100000
0000000001000000
0000001000000000
,
1100000000000000
0000000000000000
1100000000000000
0000000000000000
,
0000001100000000
0000000000000000
0000001100000000
0000000000000000
,
0000000000100000
0000000000000100
0000000001000000
0000010000000000
,
0010000000000000
0100000100000000
0000010000000000
1000001000000000
,
0100000000000000
0010000000000000
0000001000000000
0000010000000000
,
0000000001000000
0000001000000000
0000010000000000
0010000100000000
,
0001001000000000
0000000000000000
0000000000000000
0000000000000000
,
0101000000000000
0000000000000000
0000000000000000
0000000000000000
,
0110100000000000
0000000000000000
0000000000000000
0000000000000000
,
0000010000100000
0000000000000000
0000000001000000
0000001000000000
0000000000000000
0000000000000000
0000000000000000
0000000000000000
,
0100010000000000
0001000000000000
0010001000000000
0001000000000000
,
0000001000000000
0000000001000000
0000000000000100
0000000001000100
,
0000000000010000
0000000000100010
0000000000010000
0000000001000100
,
0000000000010000
0000000001000100
0000001000000000
0100000000000000
,
0001000000000000
0000000100000000
0000000100000000
0001000000000000
,
1000000000000000
1000000000000000
0000001000000000
0000000000100000
,
0000000000000010
0000000000000100
0000000000000000
0000000001000000
,
0000000000000000
0000000000000000
0000010000000000
0000010000000000
0000000000000000
0000000000000000
0000000000100000
0000000000000000
,
0000001000000000
0000000000000000
0000010000000000
0000000000000000
0000000001000000
0000000000000000
0000000000000010
0000000000000010
,
0000000000000000
0000000001000000
0000001000000000
0100000000000000
,
0100000000000000
0010000000000000
0100000000000000
0000001000000000
0100000000000000
0000010000000000
0010000000000000
0000000000000000
,
0000010000000000
0000000000000000
0000001000000000
0000000000000000
0000000000100000
0000000001000000
0000000000000100
0000000000000000
,
0000000000000000
0000000000100001
0000000000000000
0000001001000000
,
0000000000000000
1000010000000000
0000000000000000
0010000100000000
,
0000010000000000
0000000001000000
0000000001000000
0000000000000000
,
0000010000000000
0010000000000000
0000001000000000
0000010000000000
,
0000000001000000
0000010000100000
0000010000100000
0000001000000000
,
0000000001000000
0000000000100000
0000000000100000
0000000000000100
,
0000000001000000
0000000010000010
0000000010000010
0000000000100000
,
0000000001000000
0000010000000000
0000001000000000
0100000000000000
,
0010000000000000
0000001000000000
0000010000000000
0000001000000000
,
0000000001000000
0000000000000010
0000000001000000
0000000000100000
,
0000010000000000
0100000000000000
0000010000000000
0000001000000000
,
0000000001000000
0000010000000000
0000001000000000
0100000000000000
,
1000001000000000
0000000000100000
0000000000000010
0000000000000100
,
0000000001000001
0000000000000100
0000000001000000
0000000000100000
,
0000000000100000
0000010000000000
0000000000100000
0000010000000000
,
0000000000100000
0000000001000000
0000000010000010
0000000000010100
,
0000000001000000
0000000001000000
0000001000000000
0100000000000000
,
1000010000000000
1000010000000000
0000010000000000
0000011000000000
,
0010000000000000
0110000000000000
0000001000000000
0000000000100000
,
0000000000100000
0000000000000010
0000000001000000
0000000000000100
,
0000000000000010
0000000000100000
0000000000000101
0000000001000000
,
0000000000110000
0000001000000000
0000010000000000
0010000000000000
,
0010000000000000
0010000000000000
0000010000000000
0000010000000000
,
0100000000000000
0000001000000000
0100000000000000
0000000000000000
0000001000000000
0000000000000000
0000010000000000
0000000000000000
,
0000010000100000
0000010000100000
0000010000100000
0000010000100000
,
0000000000000100
0000000000100000
0000000000000010
0000000001000000
,
0000000000000001
0000000010000000
0000000000010000
0000000010000000
0000000000010000
0000000010000000
0000000001000000
0000000000100000
;
