#TITLE:열맞춰;
#SUBTITLE:Line Up!;
#ARTIST:HOT;
#TITLETRANSLIT:;
#SUBTITLETRANSLIT:;
#ARTISTTRANSLIT:;
#CREDIT:locuuraa [from 50.mp];
#BANNER:Line Up.png;
#BACKGROUND:Line Up.png;
#LYRICSPATH:;
#CDTITLE:../CDTitles/3DDX.png;
#MUSIC:Line Up.mp3;
#OFFSET:-0.300;
#SAMPLESTART:13.000;
#SAMPLELENGTH:10.000;
#DISPLAYBPM:124.0;
#BGCHANGES:;
#NOTEDATA:;
#STEPSTYPE:ds3ddx-single;
#DESCRIPTION:Pretty;
#DIFFICULTY:Easy;
#METER:5;
#RADARVALUES:;
#BPMS:0.000=124.000,74.000=85.100,92.750=252.000,103.000=105.200,136.000=218.400,138.500=217.400,151.000=85.000;
#STOPS:0.000=0.000,72.000=1.418,92.750=0.050,100.750=0.370,135.000=0.500,138.500=1.089,143.000=1.430,147.000=1.544,151.000=0.600;
#DELAYS:;
#NOTES:
00000000
00000000
00000000
00000000
,
00000000
00000000
00000000
00000000
,
00000000
00000000
00000000
00000000
,
00110100
00000000
00100000
00100000
,
00000010
00000000
00000100
00000100
,
01000000
00000000
00000010
01000000
,
01000010
00000000
00000000
00000000
,
01000100
00000000
10100001
00000000
,
00100010
00000000
10000101
00000000
,
00100000
00000100
00000100
00100000
,
10000101
00000000
00000000
00000000
,
00000010
01000000
01000000
00000010
,
01000001
00000000
10000010
00000000
,
01000000
00100000
00000100
00000010
,
01000001
00000000
00000000
00000000
,
00000010
01000000
10100000
00000000
,
01000000
00000010
00000101
00000000
,
01000000
00000010
01000000
00000010
,
01000010
00000000
10000011
00000000
,
10000101
00000000
10000011
00000000
,
00110000
00110000
00000000
00000010
,
00000000
00000000
01000000
00100000
01000000
00000000
00000000
00000000
,
00000010
01000000
00000100
00100000
,
10000101
00000000
00000000
00000000
00000000
00000000
00000000
00000000
00000000
00000000
00000000
00000001
00000000
00000000
00000000
00000000
,
00000000
00000000
00000000
10000000
00000000
00000000
00000000
00000000
00000000
00000000
00000000
00010000
00000000
00000000
00000000
00000000
,
00000000
00000000
00000000
10000001
00000000
00000000
00000000
00000000
00000000
00000000
00000000
00000000
00000100
00000000
00000000
00000000
,
10100001
00000000
00000010
01000000
,
00000100
00000000
01000000
00000010
,
00100000
01010100
00000000
00000011
,
00000000
11000000
00000000
00000100
,
00100000
00000010
10000010
01000000
,
01000001
00000100
00000000
00100000
,
00000000
01000000
00000100
00010010
,
00000000
10000000
00000001
10000000
,
00000010
00000000
00000000
00000000
00000000
00000100
00000000
00000000
,
00000000
00000000
00000000
00000100
00000000
00000000
00000000
00000000
00000000
00000000
00000000
00000000
00100000
00000000
00000000
00000000
,
00000000
00100000
00000000
00000000
00000000
00000000
01000000
00000000
,
00000000
01000000
00000000
00000000
00000000
00000000
00000010
00000000
,
00000000
00000000
01000000
01000000
01000000
00000000
00000010
00000010
,
00000010
00100000
01000000
00000100
,
00000010
00000000
01000000
00000010
01000000
00000000
00000010
01000000
,
00000010
10100000
00000101
01000000
,
00000010
00000000
00010000
00000000
00000001
10000000
00010000
00000000
,
00000000
00000100
00000000
00100000
00000000
00000010
00000100
00000010
,
00000000
00100000
00000100
11000001
00000000
00000000
00000000
00000000
;
#NOTEDATA:;
#STEPSTYPE:ds3ddx-single;
#DESCRIPTION:Power;
#DIFFICULTY:Medium;
#METER:7;
#RADARVALUES:;
#BPMS:0.000=124.000,74.000=85.100,92.750=252.000,103.000=105.200,136.000=218.400,138.500=217.400,151.000=85.000;
#STOPS:0.000=0.000,72.000=1.418,92.750=0.050,100.750=0.370,135.000=0.500,138.500=1.089,143.000=1.430,147.000=1.544,151.000=0.600;
#DELAYS:;
#NOTES:
00000000
00000000
00000000
00000000
,
00000000
00000000
00000000
00000000
,
00000000
00000000
00000000
00000000
00000000
00000000
00000000
00010000
,
10000100
00000000
00110000
10000010
,
01000010
00000000
00000000
00000000
00010100
00000101
10000100
00000000
,
00000000
00100000
00000000
00000010
,
00100010
01000000
00000000
00000010
,
00000000
01000000
00000010
00100000
,
00000100
10000000
00100000
00000001
,
00100000
00100000
00000010
00000010
,
01000000
00000000
01000000
00000000
00000010
10000001
01000000
00000000
,
00000011
00000010
11000000
01000000
,
00000011
00000000
00000010
00000000
01000000
10000000
00000000
00000000
,
00000001
00000000
00100000
00000000
,
00010000
00000001
00000000
00000000
00000000
00000000
00000000
00000000
,
10000000
00000010
00100000
00000000
00000000
00000000
00000000
00000000
,
00000100
00000100
00100000
10000000
,
00000100
00010000
00100000
10000000
,
10010101
00000000
01000000
00000100
,
01000000
00000100
01000000
00000100
,
00100000
01000000
00000100
00000010
00100000
00000000
00000100
00010000
,
00000000
00000000
00100000
00100000
00100000
00000000
00000010
00000000
,
01000000
01000000
00000100
00010000
00000000
00000000
00000000
00000000
,
01000010
00000000
00000000
00000000
00000000
00000000
00000000
00000000
00000000
00000000
00000000
00000001
00000000
00000000
00000000
10000000
,
00000000
00000000
00000000
00000010
00000000
00000000
00000000
01000000
00000000
00000000
00000000
00000001
00000000
00000000
00000000
00010000
,
00000000
00000000
00000000
00000001
00000000
00000000
00000000
00000000
00000000
00000000
00000000
00000000
00000010
00000000
00000000
00000000
,
00010000
00000001
00000000
00000000
01000000
00000000
00000000
00000000
00000010
00000000
00000000
00000000
01000000
00000000
00000000
00000000
,
01000000
00000100
00100000
00000100
,
00000100
00000000
00100000
10000001
00100000
00000000
00100000
00000000
,
00000010
00000000
00000100
10000001
00000100
00000000
00000100
00000000
,
00010000
10000000
00000010
00000000
00000010
00000000
00100000
01000000
,
00000010
00000000
01000000
00000000
01000000
00000000
00000100
00000010
,
01000000
00010100
00000100
00000100
,
01000000
10000000
00000001
10000000
,
00010100
00000000
00000000
00000000
00000000
00110010
00000000
00000000
,
00000000
00000000
00000000
00010100
00000000
00000000
00000000
00000000
00000000
00000000
00000000
00000000
00110010
00000000
00000000
00000000
,
00000000
00110000
00000000
00000000
00000000
00000000
01010100
00000000
,
00000000
00110000
00000000
00000000
00000000
00000000
01010100
00000000
,
00000000
00000000
00000100
01000000
10000010
00000000
00100000
00000010
,
01000001
00100000
11000001
00000100
,
10000011
00000000
01000000
00001000
01000000
00000000
00000010
00001000
,
00000010
00000000
00100001
00000000
10000100
00000000
01000000
01000000
,
00000010
10100001
00010000
00000000
00000101
10000100
00010100
00000000
,
00000000
01000000
00000000
10100000
00000000
00000010
00000100
00000010
,
00000000
00100000
00000100
01010010
00000000
00000000
00000000
00000000
;
#NOTEDATA:;
#STEPSTYPE:ds3ddx-double;
#DESCRIPTION:Dual;
#DIFFICULTY:Medium;
#METER:7;
#RADARVALUES:;
#BPMS:0.000=124.000,74.000=85.100,92.750=252.000,103.000=105.200,136.000=218.400,138.500=217.400,151.000=85.000;
#STOPS:0.000=0.000,72.000=1.418,92.750=0.050,100.750=0.370,135.000=0.500,138.500=1.089,143.000=1.430,147.000=1.544,151.000=0.600;
#DELAYS:;
#NOTES:
0000000000000000
0000000000000000
0000000000000000
0000000000000000
,
0000000000000000
0000000000000000
0000000000000000
0000000000000000
,
0000000000000000
0000000000000000
0000000000000000
0000000000000000
0000000000000000
0000000000000000
0000000000000000
0001000000000000
,
1000010000000000
0000000000000000
0011000000000000
1000001000000000
,
0100001000000000
0000000000000000
0000000000000000
0000000000000000
0001010000000000
0000010100000000
1000010000000000
0000000000000000
,
0000000000000000
0010000000000000
0000000000000000
0000000001000000
,
0000010001000000
0000001000000000
0000000000000000
0000000000000010
,
0000000000000000
0000001000000000
0000000001000000
0000010000000000
,
0000000000100000
0001000000000000
0000010000000000
0000000000010000
,
0000000000100000
0000010000000000
0000000001000000
0000000000000010
,
0000000001000000
0000000000000000
0000000001000000
0000000000000000
0000000000000010
0000000010000001
0000000001000000
0000000000000000
,
0000000000000011
0000000000000010
0000000001000000
0000001000000000
,
0000000001000000
0000000000000000
0000001000000000
0000000000000000
0100000000000000
1000000000000000
0000000000000000
0000000000000000
,
0000000100000000
0000000000000000
0010000000000000
0000000000000000
,
0001000000000000
0000000100000000
0000000000000000
0000000000000000
0000000000000000
0000000000000000
0000000000000000
0000000000000000
,
0001000000000000
0000000001000000
0000010000000000
0000000000000000
0000000000000000
0000000000000000
0000000000000000
0000000000000000
,
0000000000100000
0000000000100000
0000010000000000
0001000000000000
,
0000000000100000
0000000000010000
0000000000000010
0000000010000000
,
0000000010010101
0000000000000000
0000000001000000
0000000000000100
,
0000001000000000
0000000000100000
0100000000000000
0000010000000000
,
0010000000000000
0100000000000000
0000010000000000
0000001000000000
0010000000000000
0000000000000000
0000010000000000
0001000000000000
,
0000000000000000
0000000000000000
0000001000000000
0000001000000000
0000001000000000
0000000000000000
0000000001000000
0000000000000000
,
0000000000100000
0000000000100000
0000000000000100
0000000000010000
0000000000000000
0000000000000000
0000000000000000
0000000000000000
,
0000000001000010
0000000000000000
0000000000000000
0000000000000000
0000000000000000
0000000000000000
0000000000000000
0000000000000000
0000000000000000
0000000000000000
0000000000000000
0000000000000001
0000000000000000
0000000000000000
0000000000000000
0000000010000000
,
0000000000000000
0000000000000000
0000000000000000
0000000000000010
0000000000000000
0000000000000000
0000000000000000
0000000001000000
0000000000000000
0000000000000000
0000000000000000
0000000000000001
0000000000000000
0000000000000000
0000000000000000
0000000000010000
,
0000000000000000
0000000000000000
0000000000000000
0000000000000001
0000000000000000
0000000000000000
0000000000000000
0000000000000000
0000000000000000
0000000000000000
0000000000000000
0000000000000000
0000000000000100
0000000000000000
0000000000000000
0000000000000000
,
0000000000010000
0000000010000000
0000000000000000
0000000000000000
0000000001000000
0000000000000000
0000000000000000
0000000000000000
0000001000000000
0000000000000000
0000000000000000
0000000000000000
0100000000000000
0000000000000000
0000000000000000
0000000000000000
,
0100000000000000
0000010000000000
0010000000000000
0000010000000000
,
0000010000000000
0000000000000000
0010000000000000
0001000000000000
0000000000010000
0000000000000001
0000000000000000
0000000000000000
,
0000000000000000
0000000000000000
0000000000000100
0000000010000001
0000000000000100
0000000000000000
0000000000000100
0000000000000000
,
0000000000010000
0000000010000000
0000000000000010
0000000000000000
0000000000000010
0000000000000000
0000000000100000
0000000001000000
,
0000000000000010
0000000000000000
0000000001000000
0000000000000000
0000000000100000
0000000000000000
0000010000000000
0000001000000000
,
0000000001000000
0001010000000000
0000010000000000
0000010000000000
,
0000001000000000
1000000000000000
0000000100000000
1000000000000000
,
0001010000000000
0000000000000000
0000000000000000
0000000000000000
0000000000000000
0011001000000000
0000000000000000
0000000000000000
,
0000000000000000
0000000000000000
0000000000000000
0000000000110000
0000000000000000
0000000000000000
0000000000000000
0000000000000000
0000000000000000
0000000000000000
0000000000000000
0000000000000000
0001010000000000
0000000000000000
0000000000000000
0000000000000000
,
0000000000000000
0000000000010100
0000000000000000
0000000000000000
0000000000000000
0000000000000000
0000000000110010
0000000000000000
,
0000000000000000
0001010000000000
0000000000000000
0000000000000000
0000000000000000
0000000000000000
0000000000110000
0000000000000000
,
0000000000000000
0000000000000000
0000000000000100
0000000001000000
0000000010000010
0000000000000000
0000000000100000
0000000000000010
,
0000000001000001
0000000000000100
0000010000000000
0000000000100000
,
0010000000000000
0000000000000000
0000001000000000
0000100000000000
0000001000000000
0000000000000000
0100000000000000
0000100000000000
,
0100000000000000
0000000000000000
1000010000000000
0000000000000000
0010000100000000
0000000000000000
0000001000000000
0000010000000000
,
0000000000100000
0000000001001000
0000000010000000
0000000000000000
0000000000000101
0000000010000100
0000000000010100
0000000000000000
,
0000000000000000
0000000001000000
0000000000000000
0001010000000000
0000000000000000
0000000000100000
0000010000000000
0000000000100000
,
0000000000000000
0000010000000000
0000001000000000
1100000000000000
0000000000000000
0000000000000000
0000000000000000
0000000000000000
;
