#TITLE:거짓말;
#SUBTITLE:Lies;
#ARTIST:빅뱅 (Big Bang);
#TITLETRANSLIT:;
#SUBTITLETRANSLIT:;
#ARTISTTRANSLIT:;
#CREDIT:locuuraa [from 빅뱅 - 거짓말.mp];
#BANNER:Lies.png;
#BACKGROUND:Lies.png;
#LYRICSPATH:;
#CDTITLE:../CDTitles/3DDX.png;
#MUSIC:Lies.mp3;
#OFFSET:-0.100;
#SAMPLESTART:40.500;
#SAMPLELENGTH:10.000;
#DISPLAYBPM:142.0;
#BGCHANGES:;
#NOTEDATA:;
#STEPSTYPE:ds3ddx-single;
#DESCRIPTION:Pretty;
#DIFFICULTY:Easy;
#METER:1;
#RADARVALUES:;
#BPMS:0.000=125.000;
#STOPS:0.000=0.000;
#DELAYS:;
#NOTES:
00000000
00000000
00000000
00000000
,
00000000
00000000
00000000
00000000
,
00000000
00000000
00000000
00000000
,
00000000
00000000
00000000
00000000
,
00000100
00000000
00100100
00000000
,
01000000
00000000
01000010
00000000
,
00100100
00000000
00000000
00000000
,
00000000
00000000
00000000
00000000
,
00110000
00000000
00000100
00000100
00000000
01000000
00000010
00000000
,
01000000
00000000
00000000
10000011
00000000
00000000
00110000
00100000
,
00000100
00000000
00000000
00000000
,
00000000
00000000
00000000
00000000
01000000
01000000
00000010
00000010
,
11000001
00000000
00000100
00000100
00000000
00100000
00010100
00000000
,
01000000
00000000
00000010
00000010
00000000
00000000
01000000
01000000
,
10000011
00000000
00000000
00000000
,
01000000
01000000
01000010
01000000
,
00100000
00000100
00100000
00100100
,
00000010
00000100
00000010
00100100
,
01010000
00000000
00000000
00000000
00000010
01000000
00000010
00000000
,
01000000
00100000
00000100
00000000
00000100
00100000
00000100
00000000
,
00100000
00000000
00100100
00000000
00000010
00100000
00010100
00000000
,
11000000
00000000
00000011
00000000
00100000
00000010
11000001
00000000
,
01000010
00000000
00000010
00000000
01000000
00000000
10100000
01000000
,
10100000
00000000
01000000
00000000
00000010
00000100
00100000
00000000
,
00000010
00000000
01000000
00000000
,
00000100
00000000
00000000
00000000
,
01000000
00000000
00000000
00000000
,
10100001
00100000
00000010
01000000
,
01000000
01000000
00110000
00000000
00000100
00000100
00110100
00000000
,
00000100
00000000
00100000
00000000
01000000
00100000
01000000
00000000
,
00000001
00000000
00000000
00000000
00000100
00100000
01000000
00000000
,
00000000
00000000
00000100
00100100
,
00100001
00000100
10000100
00100000
,
00100000
00000100
00100000
00000100
,
00100000
10000000
00000100
00000001
,
01000000
00000010
00010000
01000010
,
01000000
00000010
01000000
01000000
,
00000001
00000010
01000000
01000010
,
01000000
00000010
00100000
00000100
,
00110000
00110000
00110000
00110000
,
00100001
00000100
10000100
00100000
,
00100000
00000100
00100000
00100100
,
10000001
00000010
01000000
00000100
,
00010000
00000000
00000100
00000100
,
10000001
01000010
10000001
01000010
,
00000010
00000100
00000010
00000000
00000000
00000000
00000000
00000000
,
00000110
00000010
01000000
00000100
,
01000000
01000000
01000000
01000000
,
10000001
00000000
00000000
00000000
;
#NOTEDATA:;
#STEPSTYPE:ds3ddx-single;
#DESCRIPTION:Power;
#DIFFICULTY:Medium;
#METER:1;
#RADARVALUES:;
#BPMS:0.000=125.000;
#STOPS:0.000=0.000;
#DELAYS:;
#NOTES:
00000000
00000000
00000000
00000000
,
00000000
00000000
00000000
00000000
,
00000000
00000000
00000000
00000000
,
00000000
00000000
00000000
00000000
,
00000100
00000000
00100100
00000000
,
01000000
00000000
01000010
00000000
,
00100100
00000000
00000000
00000000
,
00000000
00000000
00000000
00000000
,
00110000
00000000
00000100
00000100
00000000
01000000
00000010
00000000
,
01000000
00000000
00000000
10000011
00000000
00000000
00110000
00100000
,
00000100
00000000
00000000
00000000
,
00000000
00000000
00000000
00000000
01000000
01000000
00000010
00000010
,
11000001
00000000
00000100
00000100
00000000
00100000
00010100
00000000
,
01000000
00000000
00000010
00000010
00000000
00000000
01000000
01000000
,
10000011
00000000
00000000
00000000
,
01000000
01000000
01000010
01000000
,
00100000
00000100
00100000
00100100
,
00000010
00000100
00000010
00100100
,
01010000
00000000
00000000
00000000
00000010
01000000
00000010
00000000
,
01000000
00100000
00000100
00000000
00000100
00100000
00000100
00000000
,
00100000
00000000
00100100
00000000
00000010
00100000
00010100
00000000
,
11000000
00000000
00000011
00000000
00100000
00000010
11000001
00000000
,
01000010
00000000
00000010
00000000
01000000
00000000
10100000
01000000
,
10100000
00000000
01000000
00000000
00000010
00000100
00100000
00000000
,
00000010
00000000
01000000
00000000
,
00000100
00000000
00000000
00000000
,
01000000
00000000
00000000
00000000
,
10100001
00100000
00000010
01000000
,
01000000
01000000
00110000
00000000
00000100
00000100
00110100
00000000
,
00000100
00000000
00100000
00000000
01000000
00100000
01000000
00000000
,
00000001
00000000
00000000
00000000
00000100
00100000
01000000
00000000
,
00000000
00000000
00000100
00100100
,
00100001
00000100
10000100
00100000
,
00100000
00000100
00100000
00000100
,
00100000
10000000
00000100
00000001
,
01000000
00000010
00010000
01000010
,
01000000
00000010
01000000
01000000
,
00000001
00000010
01000000
01000010
,
01000000
00000010
00100000
00000100
,
00110000
00110000
00110000
00110000
,
00100001
00000100
10000100
00100000
,
00100000
00000100
00100000
00100100
,
10000001
00000010
01000000
00000100
,
00010000
00000000
00000100
00000100
,
10000001
01000010
10000001
01000010
,
00000010
00000100
00000010
00000000
00000000
00000000
00000000
00000000
,
00000110
00000010
01000000
00000100
,
01000000
01000000
01000000
01000000
,
10000001
00000000
00000000
00000000
;
