#TITLE:Killer;
#SUBTITLE:;
#ARTIST:베이비 복스 (Baby V.O.X.);
#TITLETRANSLIT:;
#SUBTITLETRANSLIT:;
#ARTISTTRANSLIT:;
#CREDIT:locuuraa [from 42.mp];
#BANNER:Killer.png;
#BACKGROUND:Killer.png;
#LYRICSPATH:;
#CDTITLE:../CDTitles/3DDX.png;
#MUSIC:Killer.mp3;
#OFFSET:0.204;
#SAMPLESTART:51.000;
#SAMPLELENGTH:10.000;
#DISPLAYBPM:113.0;
#BGCHANGES:;
#NOTEDATA:;
#STEPSTYPE:ds3ddx-single;
#DESCRIPTION:Pretty;
#DIFFICULTY:Easy;
#METER:3;
#RADARVALUES:;
#BPMS:0.000=113.040;
#STOPS:0.000=0.000;
#DELAYS:;
#NOTES:
00000000
00000000
00000000
00000000
,
00000000
00000000
00000000
00000000
,
00000000
00000000
00000000
00000000
,
00000000
00000100
00000000
00100000
,
00000000
00000101
00000000
10100000
,
00000000
01000000
00000000
00000010
,
00000000
00100000
00000100
00100000
,
00000100
00000000
00110000
00010000
,
00010000
00000101
00000000
10100000
,
00000000
00000101
00000000
01000010
,
00000000
00000011
00000000
11000000
,
00000000
00000100
01000000
00000010
,
00000010
00010000
00100000
00010000
,
00000100
00100000
01000000
00000100
,
00000010
11000000
00000000
00000011
,
00000000
00000000
00100000
00000010
01000000
00000000
01000010
00000000
,
01000010
00000000
00100000
00100000
,
00100000
00010000
00000100
00010000
,
00100000
00010000
00000000
10000001
,
00000000
01000000
01000000
00000010
,
01000000
00000100
01000010
00100000
,
01000010
00000011
00000000
11000000
,
00000000
00000101
00000000
11000000
,
11000000
00000011
00000011
01000000
,
01000010
00000101
00000000
10100000
,
00000000
01000000
00000000
00000010
,
00000000
00100000
00000100
00100000
,
00000100
00000000
00110000
00010000
,
00010000
00000101
00000000
10100000
,
00000000
00000000
00000101
00000000
00000000
00000000
00100000
00000100
,
00100000
00100100
00000000
11000000
,
00000000
00000011
00000000
01000000
,
01000010
00000000
00000001
10000000
00000001
00000000
00100000
00000000
,
00000100
00000000
00100000
00000100
00100000
00000000
00000010
00000000
,
00000000
01000000
00000000
00100000
,
01000000
00000100
00000010
01000000
,
01000000
00000010
00000010
10100000
,
00000000
00000101
00000000
00100000
,
00100000
00000100
00000100
11000000
,
00000000
00000011
00000000
01000000
,
00000100
00000100
00000100
00100000
,
00000000
00000010
00000000
01000000
,
00000000
00100000
01000000
00000101
,
00000000
00000100
00000010
10100000
,
00000000
00000100
00100000
10000001
,
00000000
00100100
00000000
00000000
00000000
00000000
00000000
00000000
;
#NOTEDATA:;
#STEPSTYPE:ds3ddx-single;
#DESCRIPTION:Power;
#DIFFICULTY:Medium;
#METER:3;
#RADARVALUES:;
#BPMS:0.000=113.040;
#STOPS:0.000=0.000;
#DELAYS:;
#NOTES:
00000000
00000000
00000000
00000000
,
00000000
00000000
00000000
00000000
,
00000000
00000000
00000000
00000000
,
00000000
00000100
00000100
00100000
,
00100000
00000101
10100000
00000101
,
00000000
00000000
00000100
10000000
00000000
00000000
00100000
00000001
,
00000000
00000100
00100000
00000010
,
01000000
00000000
00010010
00010010
,
00010010
00000101
10100000
00000101
,
00000000
00000000
00100000
00000001
00000000
00000000
00000100
10000000
,
00000000
00010100
00010100
00100000
,
00100000
00000100
00100000
00000010
,
01000000
01000000
00000100
10000001
,
00100010
10000101
01000100
10100001
,
00100000
00000101
00000100
10100000
,
00100000
00000000
00100100
00000000
00100100
00000000
00010000
00010000
,
00010000
00000000
10100000
00100000
,
00100000
10000101
01000000
10000101
,
01000000
00010000
00000000
10000011
,
00000000
00000000
01000000
00000000
01000000
00000000
01000000
01000000
,
00000100
01000000
00000100
00000000
01000010
00000000
00100000
00000000
,
01000010
00000010
00000010
01000000
,
01000000
00000000
00000010
01000000
00100000
00000000
01000000
00000100
,
00100000
01000000
01000000
00100100
,
00100100
00000101
10100000
00000101
,
00000000
00000000
00000100
10000000
00000000
00000000
00100000
00000001
,
00000000
00000100
00100000
00000010
,
01000000
00000000
00010010
00010010
,
00010010
00000101
10100000
00000101
,
00000000
00000000
00000100
10000000
00000000
00000000
00100000
00000001
,
00000000
00010100
00010100
00100000
,
00100000
00000000
01000000
00000010
00000100
00000000
00000010
00100000
,
00000100
00000000
00100000
00100000
00000100
00000000
00000001
00000000
,
10000010
01000000
00000001
00000000
00000000
00000000
00100000
00100000
,
00000010
00000000
00000100
00000100
01000000
00000000
00000001
00000000
,
10000010
01000000
00010000
00000000
00000000
00000000
00000010
00000001
,
01000000
10000000
00000010
00010000
01000000
00000000
01000100
00000000
,
10000101
01000100
10000101
00100010
,
10100001
00100010
10100001
00000010
,
01000000
00000100
00100000
00000000
,
00000100
00000100
00000100
00100000
,
00000010
00000100
00000100
01000000
,
00000000
00000000
00100000
01000000
00100000
00000000
00100000
01000000
,
00000011
00000000
00000100
00000010
00000100
00000000
00000100
00000010
,
11000000
00000000
00000010
00000000
01000000
00000000
00100000
00000100
,
00000000
00011000
00000000
00000000
00000000
00000000
00000000
00000000
;
#NOTEDATA:;
#STEPSTYPE:ds3ddx-double;
#DESCRIPTION:Dual;
#DIFFICULTY:Medium;
#METER:3;
#RADARVALUES:;
#BPMS:0.000=113.040;
#STOPS:0.000=0.000;
#DELAYS:;
#NOTES:
0000000000000000
0000000000000000
0000000000000000
0000000000000000
,
0000000000000000
0000000000000000
0000000000000000
0000000000000000
,
0000000000000000
0000000000000000
0000000000000000
0000000000000000
,
0000000000000000
0000000000100000
0000000000100000
0000000000000100
,
0000000000000100
0000000010100000
0000000000000101
0000000010100000
,
0000000000000000
0000000000000000
0000000000100000
0000000000000001
0000000000000000
0000000000000000
0000000000000100
0000000010000000
,
0000000000000000
0000000000000100
0000000000100000
0000000000000010
,
0000000001000000
0000000000000000
0000000001000000
0000000001000000
,
0000000001000000
0000000000110000
0001010000000000
0000010000010000
,
0000000000000000
0000000000000000
0000000000100000
0001000000000000
0000000000000000
0000000000000000
0000010000000000
0000000000010000
,
0000000000000000
0001010000000000
0001010000000000
0000001000000000
,
0000001000000000
0010000000000000
0000010000000000
0100000000000000
,
0000001000000000
0001000000000000
0001000000000000
1010000100000000
,
0100010000000000
1000010100000000
0010001000000000
1010000100000000
,
0100000000000000
0100000000000000
0000001000000000
0000010000000000
,
0000000000100000
0000000000000000
0000010000000000
0000000001000000
0000000000100000
0000000000000000
0000000000100000
0000000001000000
,
0000000000100000
0000000000000000
0000000000000101
0000000000000100
,
0000000000000100
0000000010100001
0000000000000010
0000000010100001
,
0000000000000010
0000000000010000
0000000000000000
0000001000000000
,
0000000000000000
0000000000000000
0000000001000000
0000000000000000
0000000001000000
0000000000000000
0000000000100000
0000000000100000
,
0000010000000000
0000000001000000
0000001000000000
0000000000000000
0000001001000000
0000000000000000
0000010000000000
0000000000000000
,
0000001001000000
0000001000000000
0000001000000000
0000000001000000
,
0000000001000000
0000000000000000
0000000001000000
0000001000000000
0000010000000000
0000000000000000
0000010000000000
0000001000000000
,
0010000000000000
0100000000000000
0100000000000000
0010010000000000
,
0010010000000000
0000010100000000
1010000000000000
0000010100000000
,
0000000000000000
0000000000000000
0000010000000000
1000000000000000
0000000000000000
0000000000000000
0010000000000000
0000000100000000
,
0000000000000000
0000010000000000
0010000000000000
0000001000000000
,
0100000000000000
0000000000000000
0000001000000000
0000001000000000
,
0000001000000000
0001010000000000
0000000000110000
0001000000100000
,
0000000000000000
0000000000000000
0000010000000000
0000000000010000
0000000000000000
0000000000000000
0000000000100000
0001000000000000
,
0000000000000000
0000000000110000
0000000000110000
0000000001000000
,
0000000001000000
0000000000000000
0000000000100000
0000000001000000
0000000000100000
0000000000000000
0000000001000000
0000001000000000
,
0000000000100000
0000000000000000
0000000000000000
0000000000000000
0000000000000000
0000000000000000
0000000100000000
0001100000000000
,
0000001000000000
0100000000000000
0000000000000000
0000000000000000
,
0000000110000000
0000000000000000
0000000000000000
0000000000000000
0000000000000000
0000000000000000
0000000010000000
0000000000011000
,
0000000001000000
0000000000000000
0000000000000010
0000000000000000
0000000000000000
0000000000000000
0000000001000000
0000000001000000
,
0000000000100000
0000000000100000
0000010000000000
0000010000000000
0000000000100000
0000000000000000
0000001000100000
0000000000000000
,
0000000000110000
0000001000100000
0000000000110000
0000010001000000
,
0001010000000000
0000010001000000
0001010000000000
0000001000000000
,
0100000000000000
0000010000000000
0010000000000000
0000000000000000
,
0000010000000000
0000010000000000
0000010000000000
0010000000000000
,
0000001000000000
0000010000000000
0000010000000000
0100000000000000
,
0000000000000000
0000000000000000
0010000000000000
0100000000000000
0010000000000000
0000000000000000
0010000000000000
0100000000000000
,
0000001100000000
0000000000000000
0000010000000000
0000001000000000
0000010000000000
0000000000000000
0000010000000000
0000001000000000
,
0000000001000000
0000001001000000
0001100000011000
0000000000000000
,
0000000000000000
0001000110010000
0000000000000000
0000000000000000
0000000000000000
0000000000000000
0000000000000000
0000000000000000
;
