#TITLE:찾길바래;
#SUBTITLE:I will back;
#ARTIST:유승준 (Yoo Seung-jun);
#TITLETRANSLIT:;
#SUBTITLETRANSLIT:;
#ARTISTTRANSLIT:;
#CREDIT:locuuraa [from 24.mp];
#BANNER:I will back.png;
#BACKGROUND:I will back.png;
#LYRICSPATH:;
#CDTITLE:../CDTitles/3DDX.png;
#MUSIC:I will back.mp3;
#OFFSET:-0.117;
#SAMPLESTART:7.500;
#SAMPLELENGTH:10.000;
#DISPLAYBPM:118.0;
#BGCHANGES:;
#NOTEDATA:;
#STEPSTYPE:ds3ddx-single;
#DESCRIPTION:Pretty;
#DIFFICULTY:Easy;
#METER:4;
#RADARVALUES:;
#BPMS:0.000=117.950;
#STOPS:0.000=0.000;
#DELAYS:;
#NOTES:
00000000
00000000
00000000
00000000
,
00000000
00000000
00000000
00000000
,
00000000
00000000
00000000
00000000
,
00000000
00000010
01000000
00000101
,
10100000
00000100
00000100
00100000
,
00100000
00000011
00000000
11000000
,
00000000
00100000
00000000
00000100
,
00000000
01010000
00000010
01000000
,
00000000
00000100
00000100
01000000
,
00000010
01000000
00000000
00000100
,
00000000
11000000
00000000
00000011
,
00000000
00000000
00100000
00000000
00000100
00000000
00100000
00000100
,
00100000
00000011
00000000
00000010
,
00000010
11000000
00000000
01000000
,
01000000
00000100
00000000
00100000
,
00000000
00000100
00100000
00000010
,
01000000
00010100
00000000
00110000
,
00000000
00000010
00000000
01000000
,
00000000
00000010
00000000
00100000
,
00000100
01000000
01000000
00000010
,
00000011
00000000
00000100
00000000
,
00100000
00000000
00000100
00100000
,
00100000
00100100
00000000
00000010
,
00000010
01000000
01000000
00000100
,
00000010
10000001
00000000
00000000
,
00000000
00000000
00000000
00000000
,
00000000
00000010
01000000
01000000
,
01000010
01000000
00000010
00000010
,
01000010
10000000
00000000
00000101
,
00000000
10100000
00000000
00000101
,
00000000
00100000
00000000
00000100
,
00000000
00000010
01000000
00000010
,
00000000
00100000
00000100
00110000
,
00000000
00000100
00100000
00010100
,
00000000
00100000
00000100
00100000
,
00000100
01000000
01000000
00010000
,
10000000
00000100
00000100
00100000
,
00100000
00000010
00000000
01000000
,
00000000
00110000
00000000
00010100
,
00000000
00000000
00000010
00000000
00000000
00000000
01000000
00100000
,
01000000
00010000
00000001
00010000
,
10000000
00000100
00000100
00100000
,
00100000
00000100
00100000
00000010
,
01000000
00000001
10000000
00000001
,
10000000
00010100
00000000
00000000
;
#NOTEDATA:;
#STEPSTYPE:ds3ddx-single;
#DESCRIPTION:Power;
#DIFFICULTY:Medium;
#METER:4;
#RADARVALUES:;
#BPMS:0.000=117.950;
#STOPS:0.000=0.000,97.000=2.550;
#DELAYS:;
#NOTES:
00000000
00000000
00000000
00000000
,
00000000
00000000
00000000
00000000
,
00000000
00000000
00000000
00000000
,
00000000
00000000
01000100
00000000
00100010
00000000
00100000
00010100
,
01000000
00000100
00000100
01000000
,
01000000
00000000
00000100
00000000
00000010
00000000
11000000
00000010
,
01000000
00000101
10100000
00000100
,
00100000
00010010
01010000
00000010
,
00000010
10100001
00100000
10000011
,
11000000
00000010
01000010
00110000
,
10100000
00100100
01100000
00000010
,
00000100
00000000
00100000
10000000
00000100
00000001
00100000
00000100
,
00100100
00000000
00000010
00000000
00000000
00000000
10000010
00010000
,
10000010
00000000
00100000
00000000
01000000
00000000
00000100
00100000
,
00000100
01000001
00000010
10000010
,
01000000
00100000
00010100
00000010
,
01000000
00010100
00100100
00100000
,
00100000
00000010
00010010
01000000
,
01010000
10000101
00000100
00100000
,
00100000
00000100
00100000
00000001
01000000
00000010
01000000
00000000
,
01000010
00000000
00000101
00000000
00000101
00000000
00100000
01000000
,
00000010
00000000
11100000
00000000
00000111
00000000
00100000
01000000
,
00000010
00000000
00100100
00000000
00000000
00000000
00000100
00100000
,
00000100
00000000
11000000
00000000
11000000
00000000
00000100
00000010
,
01000000
11000011
00000000
11000010
,
00000010
00000000
01000000
00000000
00100000
00000010
00100000
00000000
,
10000011
00110000
00000010
00110000
,
10000100
00000000
00000000
00000000
00010000
00010000
00100100
00000000
,
00000010
01000010
01000000
01000010
,
00000100
00000100
00100000
00100000
,
01000010
00000000
01000000
00000000
00000010
01000000
00000010
00000000
,
11000000
00000000
00000011
00000000
00010000
00010000
01000010
00000000
,
00100000
00000010
00100000
00000000
00100000
00000010
00100000
00000000
,
00000100
00100000
00000100
00100000
,
00010010
00010010
00010010
00000000
,
00100000
00100000
00000100
00000100
,
00100000
00000000
01000000
00000000
00000011
01000000
00000010
00000000
,
10100000
00100000
00000101
00000100
,
00100010
00000000
01000100
00000000
00100000
00010100
01000000
00000000
,
00000011
00000011
00010010
10000010
,
00100000
00000100
00100000
00000000
00100000
00000100
00100000
00000000
,
00010010
01000000
00000100
00100000
,
00000101
00000000
10100000
00000000
00010000
00010000
00100100
00000000
,
01000000
00000000
00000000
00000000
;
#NOTEDATA:;
#STEPSTYPE:ds3ddx-double;
#DESCRIPTION:Dual;
#DIFFICULTY:Medium;
#METER:5;
#RADARVALUES:;
#BPMS:0.000=117.950;
#STOPS:0.000=0.000,97.000=2.550;
#DELAYS:;
#NOTES:
0000000000000000
0000000000000000
0000000000000000
0000000000000000
,
0000000000000000
0000000000000000
0000000000000000
0000000000000000
,
0000000000000000
0000000000000000
0000000000000000
0000000000000000
,
0000000000000000
0000000000000000
0100010000000000
0000000000000000
0010001000000000
0000000000000000
0010000000000000
0001010000000000
,
0100000000000000
0000010000000000
0000010000000000
0000000000100000
,
0000000000100000
0000000000000000
0000010000000000
0000000000000000
0000001000000000
0000000000000000
0000001000000000
0000000001000000
,
0000001000000000
0000000000000000
0000000000000100
0000000000000000
0000000000100000
0000000000000000
0000000000000100
0000000000100000
,
0000000000100100
0000000000010100
0000000000100000
0000010000000000
,
0010000000000000
0000000000000000
1010000100000000
0000000000000000
0010000000000000
0000000000000000
0000001100000000
0001000000000000
,
1100000000000000
0000001000000000
0100001000000000
0011000000000000
,
1010000000000000
0000000000000000
0010010000000000
0000000000000000
0110000000000000
0000000000000000
0000001000000000
0000010000000000
,
0000000000100000
0000000000000000
0000000000100000
0000000000010000
0000010000000000
0001000000000000
0000000000100000
0000010000000000
,
0000010000100000
0000000000000000
0000000000000010
0000000000000000
0000000000000000
0000000000000000
0000000010000010
0000000000010000
,
0000000010000010
0000000000000000
0000000000100000
0000000000000000
0000000001000000
0000000000000000
0000000001000000
0000000000000010
,
0000000001000000
0001000000100000
0000010000000000
0000010000010000
,
0000000000100000
0000000001000000
0000001000000000
0000000000000010
,
0000000001000000
0000000000000000
0000000000010100
0000000000000000
0000000000100100
0000000000000000
0000000000100000
0000000000000100
,
0000000000100000
0000000000000010
0000000000010010
0000000001000000
,
0000000001010000
0000000010000101
0000000000000100
0000000000100000
,
0000000000100000
0000000001000000
0000000000100000
0000000000010000
0000001000000000
0000000001000000
0010000000000000
0000010000000000
,
0100001000000000
0000000000000000
0000010100000000
0000000000000000
0000010100000000
0000000000000000
0010000000000000
0100000000000000
,
0000001000000000
0000000000000000
1110000000000000
0000000000000000
0000011100000000
0000000000000000
0010000000000000
0100000000000000
,
0000001000000000
0000000000000000
0000010000100000
0000000000000000
0000000000000000
0000000000000000
0000010000000000
0000000000010000
,
0000010000000000
0000000000000000
0000000001000000
0000000000000000
0000000001000000
0000000000000000
0000000000000100
0000000000000010
,
0000000001000000
1001100110000010
0000000000000000
0001010001000000
,
0000000001000000
0000000000000000
0000001000000000
0000000000000000
0000010000000000
0000000001000000
0000010000000000
0000000000000000
,
0000001001000000
0001010000000000
0000000001000000
0001010000000000
,
0000000000000100
0000000000000000
0000000000000000
0000000000100100
,
0000000000000010
0000000001000010
0000000001000000
0000000001000010
,
0000000000000100
0000000000000010
0000000000100000
0000000001000000
,
0000000011000011
0000000000000000
0000000001001000
0000000000000000
0000000000100000
0000010000000000
0000001000000000
0100000000000000
,
1100000000000000
0000000000000000
0000001100000000
0000000000000000
0001000000000000
0001000000000000
0100001000000000
0000000000000000
,
0010000000000000
0000001000000000
0010000000000000
0000000000000000
0010000000000000
0000001000000000
0010000000000000
0000000000000000
,
0000010000000000
0010000000000000
0000000000100000
0000010000000000
,
0000000001010000
0000001000000000
0000000001000000
0000000000000000
,
0000010000000000
0000010000000000
0100000000000000
0100000000000000
,
0000010000000000
0000000000000000
0010000000000000
0000000000000000
0000001100000000
0100000000000000
0000001000000000
0000000000000000
,
1010000000000000
0000010100000000
0100000000000000
0000001000000000
,
0000010001000000
0000000000000000
0000001000100000
0000000000000000
0000000000100000
0000000000000100
0000000001000000
0000000000000000
,
0000000000000011
0000000000000011
0000000000010010
0000000010000010
,
0000000000100000
0000000000000100
0000000000100000
0000000000000000
0000000000100000
0000000000000100
0000000000100000
0000000000000000
,
0000000000010010
0000000001000000
0000000000000100
0000000000100000
,
0000000000110000
0000000000000000
0001101000000000
0000000000000000
0001000000000000
0001000000000000
0010010000000000
0000000000000000
,
0100000000000000
0000000000000000
0000000000000000
0000000000000000
;
