#TITLE:니가필요해;
#SUBTITLE:I need you;
#ARTIST:god;
#TITLETRANSLIT:;
#SUBTITLETRANSLIT:;
#ARTISTTRANSLIT:;
#CREDIT:locuuraa [from 55.mp];
#BANNER:I need you.png;
#BACKGROUND:I need you.png;
#LYRICSPATH:;
#CDTITLE:../CDTitles/3DDX.png;
#MUSIC:I need you.mp3;
#OFFSET:-0.367;
#SAMPLESTART:15.000;
#SAMPLELENGTH:10.000;
#DISPLAYBPM:114.0;
#BGCHANGES:;
#NOTEDATA:;
#STEPSTYPE:ds3ddx-single;
#DESCRIPTION:Pretty;
#DIFFICULTY:Easy;
#METER:3;
#RADARVALUES:;
#BPMS:0.000=113.100;
#STOPS:0.000=0.000;
#DELAYS:;
#NOTES:
00000000
00000000
00000000
00000000
,
00000000
00000000
00000000
00000000
,
00000000
00000000
00000000
00000000
,
00000000
00000000
00000000
00000000
,
00000100
00000000
00000000
00000000
,
01000000
00000000
00000000
00000000
,
00000010
00000000
00000000
00000000
,
00000000
00000000
00000000
00000100
,
00100000
00000000
00000100
00100000
,
00000100
00000000
01000000
00000010
,
01000000
00000000
00000010
01000000
,
00000010
00000000
11000000
00000000
,
00000100
00000000
00000100
00000000
,
00100000
00000000
00100000
00000000
,
00000010
01000000
00000010
00000000
,
00100000
00100000
00100000
00000000
,
00010000
00000000
00000010
00000000
,
00010000
00000000
01000000
00000000
,
00000010
00000000
00000010
00000000
,
00100000
00000100
00100000
00000100
,
01000000
00000000
01000000
01000000
,
00000010
00000000
00000010
00000010
,
00100000
00000000
00000100
00000000
,
10000000
00000000
10000000
00000000
,
00000100
00100000
00000100
00000000
,
00100000
00000100
00100000
00000000
,
00000010
00000000
01000000
00000000
,
00000001
00000000
10000000
00000000
,
00000100
00000000
00000010
00000000
,
00100000
00000000
01000000
00000000
,
00000101
00000000
10100000
00000000
,
00000010
01000000
01000010
00000000
,
00000100
00000100
00100000
00100000
,
00000010
00000010
01000000
01000000
,
00000100
00000000
00100000
00000000
,
00000011
00000000
00000000
00000000
,
00100000
00000100
00100000
00100000
,
00000100
00100000
00000100
00000100
,
01000000
00000000
00000010
00000000
,
01000000
00000010
01000000
00000010
,
00010000
00000000
00000000
00000000
;
#NOTEDATA:;
#STEPSTYPE:ds3ddx-single;
#DESCRIPTION:Power;
#DIFFICULTY:Medium;
#METER:5;
#RADARVALUES:;
#BPMS:0.000=113.100;
#STOPS:0.000=0.000;
#DELAYS:;
#NOTES:
00000000
00000000
00000000
00000000
,
00000000
00000000
00000000
00000000
,
00000000
00000000
00000000
00000000
,
00000000
00000000
00000000
00000000
,
00000100
00000000
00000000
00000000
,
01000000
00000100
00000000
00000000
00000000
00000000
00000000
00000000
,
01000000
00000000
00000000
00000000
,
00000000
00000000
00000000
00000000
00000000
00000000
00000100
00000100
,
00000000
00000000
01000000
00000001
01000000
00000100
00100000
00000010
,
00000010
00000000
00100000
00010000
00100000
00000100
00000100
01000000
,
00000010
00000000
01000000
00100000
01000000
00000000
00000010
01000000
,
00000001
00000000
01000010
01000010
00000001
01000000
00000100
00010000
,
00010000
00000000
00100000
00000010
01000000
10000000
00000010
00000001
,
00000010
00000000
00100010
00000100
00100010
00000100
01000000
10000000
,
00000001
00000000
01000000
00000100
00000010
00100000
01000000
00000010
,
00000010
00000000
00100000
00100000
00000100
00000000
00000010
00000000
,
00110000
00000000
00000010
00000000
00110000
00000010
00100000
00000000
,
00010100
00000000
01000000
00000000
00010100
01000000
00000100
00000000
,
01000000
10100000
00000010
00000101
,
01000010
01000010
00100000
00000000
00000100
00010000
01000001
00000000
,
00010010
00000000
00000010
00000010
,
01010000
00000000
01000000
01000000
,
00000100
00100000
10000011
00000000
00100000
00000100
11000001
00000000
,
00000100
01000000
00000010
00110000
,
00000010
00000010
01000001
00000000
00000100
00100000
00010010
00000000
,
00100000
00000001
00100000
00000000
00000100
01000000
10000010
00000000
,
01000100
00100000
01000100
00000000
00000100
00100000
00000010
00000000
,
00000010
00000100
01010000
00000000
01000000
00100000
00010010
00000000
,
01000000
00000000
00000010
00000000
00110000
10000000
00010000
00000000
,
00000010
11000000
00000010
00000000
01000000
00000011
01000000
00000000
,
00000100
00000000
00100000
00000000
,
00000010
00100000
00000100
00100100
,
00000101
00100000
00000101
00000000
10100000
00000100
10100000
00000000
,
00000011
00000010
11000000
01000000
,
00000011
00000010
00000010
00000000
11000000
01000000
01000000
00000000
,
00000011
00000000
00000010
00000000
00000010
00010000
00000010
00000000
,
00100000
00000000
00000100
00000000
00100000
00100000
01000000
00000000
,
00000100
00000100
00000010
00000000
10000000
00000001
10000000
00000000
,
00000100
01000000
00000100
00000000
00100000
00000010
00100000
00000000
,
00000111
00000000
11100000
00000000
00100000
00000010
10100001
00000000
,
00010000
00000000
00000000
00000000
;
#NOTEDATA:;
#STEPSTYPE:ds3ddx-double;
#DESCRIPTION:Dual;
#DIFFICULTY:Medium;
#METER:5;
#RADARVALUES:;
#BPMS:0.000=113.100;
#STOPS:0.000=0.000;
#DELAYS:;
#NOTES:
0000000000000000
0000000000000000
0000000000000000
0000000000000000
,
0000000000000000
0000000000000000
0000000000000000
0000000000000000
,
0000000000000000
0000000000000000
0000000000000000
0000000000000000
,
0000000000000000
0000000000000000
0000000000000000
0000000000000000
,
0000000000000100
0000000000100000
0000000000000010
0000000000100000
0000000001000000
0000000000000000
0000000000000000
0000000000000000
,
0000010000000000
0000000000000000
1000001100000000
0000000000000000
,
0010000000000000
0000000000000000
0000000000000000
0000000000000000
0100000000000000
0000001000000000
0100000000000000
0000000000000000
,
0000001000000000
0000000000000000
0000000000100000
0000000000000000
0000000001000100
0000000000010100
0000000001000000
0000000001000000
,
0000000000000100
0000000000000010
0000000000100000
0000000001000000
0000000000100000
0000000001000000
0000001000000000
0001000000000000
,
0001000000000000
0000000000000000
0100000000000000
0001000000000000
0000010000000000
0000001000000000
0000010000000000
0000001000000000
,
0000000000100000
0000000000000100
0000000001000000
0000000000000000
0000000001000000
0000001000000000
0000000001000000
0000000000000010
,
0000000001000000
0000000000000000
0000000000100010
0000000000000010
0000000001000000
0000000000000100
0000000001000000
0000000000010000
,
0000000000000100
0000000000100000
0000000000000010
0000000000000000
0000000001000000
0000000000000001
0000000001000000
0000000000000000
,
0000000000100000
0000000000000100
0000000001000000
0000000001000000
0000000000000010
0000000001000000
0000000000000010
0000000000000000
,
0000000000100000
0000010000000000
0000000000100000
0000000000000000
0000000000100000
0000000001000000
0000010000000000
0000000000000000
,
0000000000100000
0000000000010000
0000010000000000
0001000000000000
0000001000000000
0010000000000000
0000010000000000
0000001000000000
,
0100000000000000
0000000000000000
1100000100000000
0000000000000000
,
0000010000000000
0000000000000000
0100000000000000
0000000000000000
0000010000000000
0100000000000000
0000010000000000
0000000000000000
,
0011000000000000
0000000000000000
0000000000000000
0000000000000000
0000010000000000
0100000000000000
0000001000000000
0100000000000000
,
0000010000000000
0000001000000000
0000000001000000
0000000000100000
0000000000000100
0000000001000000
0000000000000010
0000000000000000
,
0000000000100000
0000000000000000
0000000011000000
0000000000000000
0000000001000000
0000000000000010
0000000001000000
0000000000000000
,
0000000000000100
0000000000000000
0000000000000011
0000000000000000
0000000000000010
0000000001000000
0000000000000010
0000000000000000
,
0000000000100000
0000000000110100
0000000000000100
0000000000110100
,
0000000000100000
0000000001000000
0000010000000000
0000001000000000
0010000000000000
0100000000000000
0010000000000000
0000000000000000
,
0000001100000000
0000000000000000
0000000000000000
0000000000000000
0000001000000000
0100000000000000
0000001000000000
0000000000000000
,
0010000000000000
0000010000000000
0100000000000000
0000000000000000
0010000000000000
0000010000000000
0100000000000000
0000001000000000
,
0001010000000000
0000000000000000
0000000000100000
0000010000000000
,
0000000000100000
0000001000000000
0000000000100000
0000000000000000
0000010000000000
0000000001000000
0000010000000000
0000000000000000
,
0000000000110000
0000000000000001
0000000000000010
0000000000000000
0000000001000000
0000000000000000
0000000001000000
0000000000000000
,
0000000000000010
0000000001000000
0000000000000100
0000000000000000
,
0000000000000100
0000000000100000
0000000000000010
0000000000000000
0000000000100000
0000000000000100
0000000001000000
0000000000000000
,
0000000000100000
0000000000000100
0000000010000001
0000000000000000
,
0000000010100000
0000000000000100
0000000010100000
0000000000000000
0000000000000101
0000000000100000
0000000000000101
0000000000000000
,
0000000001000000
0000000011000000
0000000000000010
0000000000000011
,
0000000000100000
0000000000000100
0000000000000010
0000000001000000
,
0000000000100010
0000000000100010
0000000000110000
0000000000110000
,
0000010001000000
0000000000000000
0000001000100000
0000000000000000
0000010000000000
0000010000000000
0000010000000000
0000000000000000
,
0000001000100000
0000000000000000
0000010001000000
0000000000000000
0000000000100000
0000000000100000
0000000000100000
0000000000000000
,
0000001000000000
0010001000000000
0010000000000000
0000010000000000
,
0000000000100000
0000000000000000
0000010000000000
0000000000000000
0000000001000000
0000001000000000
0000001001000000
0000000000000000
,
0001100000011000
0000000000000000
0000000000000000
0000000000000000
;
