#TITLE:HONEY;
#SUBTITLE:;
#ARTIST:박진영 (Park Jin-young);
#TITLETRANSLIT:;
#SUBTITLETRANSLIT:;
#ARTISTTRANSLIT:;
#CREDIT:locuuraa [from 30.mp];
#BANNER:HONEY.png;
#BACKGROUND:HONEY.png;
#LYRICSPATH:;
#CDTITLE:../CDTitles/3DDX.png;
#MUSIC:HONEY.mp3;
#OFFSET:-0.000;
#SAMPLESTART:13.000;
#SAMPLELENGTH:10.000;
#DISPLAYBPM:113.0;
#BGCHANGES:;
#NOTEDATA:;
#STEPSTYPE:ds3ddx-single;
#DESCRIPTION:Pretty;
#DIFFICULTY:Easy;
#METER:2;
#RADARVALUES:;
#BPMS:0.000=113.200;
#STOPS:0.000=0.000;
#DELAYS:;
#NOTES:
00000000
00000000
00000000
00000000
,
00000000
00000000
00000000
00000000
,
00000000
00000000
00000001
00000000
,
10000000
00000000
00000100
00000100
,
00000100
00000100
10000000
00000000
,
00000001
00000000
01000010
00000000
,
00100100
00000000
10000001
00000000
,
00000000
00000000
00000010
01000000
,
00000010
00000000
00100000
00000100
,
00100000
00000000
00000010
00000000
,
01000000
00000000
00000001
10000000
,
00000001
00000000
00100000
00000000
,
00000100
00000000
01000000
00000000
,
01000000
00000000
00000010
00000000
,
00000010
00000000
00100000
00000000
,
00000100
00000000
10000001
00000000
,
00000010
01000000
00000010
00000000
,
11000000
00000000
11000000
00000000
,
00000011
00000000
01000000
01000000
,
01000000
00000000
00100100
00000001
,
00100100
00000001
00100000
00000000
,
00000100
00000000
01000010
10000000
,
01000010
10000000
00000010
00000000
,
01000000
00000000
00000100
00000001
,
00000100
00000001
00000100
00100000
,
00000100
00000000
00100000
10000000
,
00100000
10000000
00100000
00000100
,
00100000
00000000
00010100
00000000
,
00000000
00000000
00100000
00100000
,
00000100
00000100
01000000
00000000
,
01000000
10000001
00000100
00000100
,
00100000
00100000
00000010
00000000
,
00000010
00000000
01000000
10000000
,
01000000
10000000
01000000
00000010
,
01000000
00000000
00000010
00000001
,
00000010
00000001
00000010
01000000
,
00000010
00000000
11000000
00000000
,
00000011
00000000
00100000
00100000
,
00100000
00000000
00000010
01000000
,
00000010
01000000
00000100
00000000
,
00000100
00000000
11000000
00000000
,
00000011
00000000
00100000
00000100
,
00100000
00000100
11000000
00000000
,
00000011
00000000
00100000
10000000
,
00000100
00000001
00100100
00000000
,
00000000
00000000
00000000
00000000
,
00000000
00000000
00000000
00000000
,
00000000
00000000
00000000
00000000
,
00000000
00000000
00000000
00000000
,
00000000
00000000
00000000
00000000
,
00000000
00000000
00100000
00000000
,
00100000
00000000
00100000
00000000
,
00100000
00000000
00100000
00000000
;
#NOTEDATA:;
#STEPSTYPE:ds3ddx-single;
#DESCRIPTION:Power;
#DIFFICULTY:Medium;
#METER:3;
#RADARVALUES:;
#BPMS:0.000=113.200;
#STOPS:0.000=0.000;
#DELAYS:;
#NOTES:
00000000
00000000
00000000
00000000
,
00000000
00000000
00000000
00000000
,
00000000
00000000
00000010
00000000
,
01000000
00000000
00000000
00000000
00000101
10000000
00000101
10000000
,
00000101
10000000
00000101
00000000
01000000
00000000
00000000
00000000
,
00000010
00000000
00100100
10000000
,
01000010
00000001
00110000
00000000
,
00000000
00000000
00010100
11000000
,
00010100
00000000
00110000
00000011
,
00110000
00000000
11000000
00000010
,
11000000
11000000
00000011
01000000
,
00000011
00000011
00110000
00000011
,
00110000
00000000
00010100
11000000
,
00010100
00000000
11000000
00000010
,
11000000
11000000
00000011
01000000
,
00000011
00000011
00110000
00000000
,
00000100
00000000
01000000
00000000
,
00000010
00000000
00100000
00000100
,
01000000
00000000
00000010
00000000
00100000
00000100
00100000
00000100
,
00100000
00000100
00100000
00000000
00000100
00000000
00110010
00000000
,
00000100
00110010
00000000
00000100
,
00100000
00000000
00100000
01010100
,
00100000
01010100
00000000
00100000
,
00000100
00000000
01000000
00000011
,
01000000
00000000
00000011
00000000
00100000
00000000
00000100
00100000
,
00000100
00100000
00000010
11000000
,
00000010
00000000
11000000
00000000
00000100
00000000
00100000
00000100
,
00100000
00000100
11000011
00000000
,
00000000
00000000
00000000
00000000
00000100
01000000
00100000
01000000
,
00000100
01000000
00100000
01000000
00000100
00000000
01000000
00000000
,
00000100
00000000
10000001
00000000
00100000
00000010
00000100
00000010
,
00100000
00000010
00000100
00000010
00100000
01000000
00000010
00000100
,
00100000
01000000
00000010
00000000
01000000
00000000
01010000
00000000
,
00000010
00010010
00100000
00000100
,
10000000
00010000
10000000
00000000
00000010
00000000
00010010
00000000
,
01000000
01010000
00000100
00100000
,
00000010
01000000
10000001
00100100
,
10000001
00100100
00000000
00000010
,
01000000
00000000
00000000
00000000
00000010
00000001
00000010
00000000
,
01000000
10000000
01000000
00000000
00000000
00000000
00000100
00000000
,
00100000
00000000
00000010
00000000
,
01000000
00000000
00000000
00000000
00000101
10000000
00000101
10000000
,
00000101
10000000
00000101
00000000
01000000
00000000
00000000
00000000
,
00000010
00000000
00000000
00000000
00100000
10000000
00100000
00000000
,
00000100
00000001
00000100
00000000
00100100
00000000
00000000
00000000
;
#NOTEDATA:;
#STEPSTYPE:ds3ddx-double;
#DESCRIPTION:Dual;
#DIFFICULTY:Medium;
#METER:3;
#RADARVALUES:;
#BPMS:0.000=113.200;
#STOPS:0.000=0.000;
#DELAYS:;
#NOTES:
0000000000000000
0000000000000000
0000000000000000
0000000000000000
,
0000000000000000
0000000000000000
0000000000000000
0000000000000000
,
0000000000000000
0000000000000000
0000000000000010
0000000000000000
,
0000000001000000
0000000000000000
0000000000000000
0000000000000000
0000000000000101
0000000000010000
0000000000000101
0000000000010000
,
0000000000000101
0000000000010000
0000000000000101
0000000000000000
0000000001000000
0000000000000000
0000000000000000
0000000000000000
,
0000001000000000
0000000000000000
0000000000000000
1001000000000000
0010000000000000
0000000000000000
0000010000000000
0001000100000000
,
0000010000000000
0010000000000000
0000010100000000
0000000000000000
,
0000000000000000
0000000000000000
0001000000000000
0000000100000000
,
0001000000000000
0000000000000000
0000000000100000
0000000001000000
,
0000000000000100
0000000001000000
0000000000000011
0000000001000000
,
0000000000000011
0000000000000011
0000000011000000
0000000000000010
,
0000000011000000
0000000011000000
0000000000010000
0000000010000000
,
0000000000010000
0000000000000000
0000010000000000
0000001000000000
,
0010000000000000
0000001000000000
1100000000000000
0000001000000000
,
1100000000000000
1100000000000000
0000001100000000
0100000000000000
,
0000001100000000
0000001100000000
1010000000000000
0000000000000000
,
0001010000000000
0000000000000000
0000001000000000
0000000000000000
,
0000000001000000
0000000000000000
0000010000000000
0000000000100000
,
0000010000000000
0000000000000000
0000000000100000
0000000000000000
0001000000000000
0000000000010000
0001000000000000
0000000000010000
,
0001000000000000
0000000000010000
0001000000000000
0000000000000000
0000010001000000
0000000000000000
0000001000100000
0000000000000000
,
0000010001000000
0000001000100000
0000000000000000
0000000000000100
,
0000000000100000
0000000000000000
0000000000000000
0000000000000000
0000000000000100
0000000000000001
0000000000000100
0000000000000000
,
0000000000100000
0000000010000000
0000000000100000
0000000000000000
0000000000000000
0000000000000000
0010000000000000
0000000000000000
,
0000010000000000
0000000000000000
0000000000000000
0000000000000000
0010000000000000
1000000000000000
0010000000000000
0000000000000000
,
0000010000000000
0000000100000000
0000010000000000
0000000000000000
0010010000000000
0000000000000000
0100001000000000
0100001000000000
,
0100001000000000
0000000000000000
0000000000010000
0001010000000000
,
0000000000010000
0000000000000000
0001010000000000
0000000000000000
0000000000100000
0000000000000000
0000010000000000
0000000000100000
,
0000010000000000
0000001000100000
0000010001000000
0000000000000000
,
0000000000000000
0000000000000000
0000000000000100
0000000000100000
,
0000000001000000
0000001000000000
0000010000000000
0010000000000000
,
0000010000000000
1000000100000000
0010000000000000
0000010000000000
,
0000001000000000
0000000000000000
0000000001000000
0000000000000000
0000000000100000
0000000000000100
0000000000100000
0000000000000100
,
0000000000100000
0000000000000100
0000000000100000
0000000000000000
0000000000000010
0000000000000000
0000000000010010
0000000000000000
,
0000000001000000
0000000001010000
0000000000000010
0000000001000000
,
0000001000000000
0100000000000000
0000001000000000
0001001000000000
,
0100000000000000
0101000000000000
0000010000000000
0000001000000000
,
0010000000000000
0100000000000000
0000100000000000
0000011000000000
,
0000100000000000
0000011000000000
0000000000000000
0000000001000000
,
0000000000000010
0000000000000000
0000000000000000
0000000000000000
0000000001000000
0000000010000000
0000000001000000
0000000000000000
,
0000000000000010
0000000000000001
0000000000000010
0000000000000000
0000000000000000
0000000000000000
0000000000100000
0000000000000000
,
0000010000000000
0000000000000000
0100000000000000
0000000000000000
,
0000001000000000
0000000000000000
0000000000000000
0000000000000000
1010000000000000
0001000000000000
1010000000000000
0001000000000000
,
1010000000000000
0001000000000000
1010000000000000
0000000000000000
0000001000000000
0000000000000000
0000000000000000
0000000000000000
,
0000000001000000
0000000000000000
0000000000000000
0000000000010001
0000000000000100
0000000000000000
0000000000100000
0000000010010000
,
0000000000100000
0000000000000100
0000000000100100
0000000000000000
;
