#TITLE:웃기네;
#SUBTITLE:Gotta Be Kidding;
#ARTIST:하늘 (Rottyful Sky);
#TITLETRANSLIT:;
#SUBTITLETRANSLIT:;
#ARTISTTRANSLIT:;
#CREDIT:locuuraa [from 64.mp];
#BANNER:Gotta Be Kidding.png;
#BACKGROUND:Gotta Be Kidding.png;
#LYRICSPATH:;
#CDTITLE:../CDTitles/3DDX.png;
#MUSIC:Gotta Be Kidding.mp3;
#OFFSET:0.060;
#SAMPLESTART:36.500;
#SAMPLELENGTH:10.000;
#DISPLAYBPM:138.0;
#BGCHANGES:;
#NOTEDATA:;
#STEPSTYPE:ds3ddx-single;
#DESCRIPTION:Pretty;
#DIFFICULTY:Easy;
#METER:5;
#RADARVALUES:;
#BPMS:0.000=138.289;
#STOPS:0.000=0.000,62.000=0.000;
#DELAYS:;
#NOTES:
00000000
00000000
00000000
00000000
,
00000000
00000000
00000000
00000000
,
00000000
00000000
00000000
00000000
,
00000000
00000000
00000000
00000000
,
00000000
00000011
00000000
00000101
,
00000000
00000010
00000100
00000010
,
00000000
00110000
00000000
00010100
,
00000000
00100000
00000100
00100000
,
00000000
00000000
00100000
00000000
00000010
00000000
00100000
00100000
,
00100000
00010100
00000000
00000000
,
00000000
00000100
00000100
00100000
,
00100000
00000110
00000000
00000000
,
00000000
00100100
00000100
00000010
,
00000000
00000110
00000000
01100000
,
00000000
00000101
00000000
10100000
,
00000000
00000010
01000000
00000010
,
00000000
00000000
00000100
00000100
00100000
00100000
01000000
01000000
,
00000010
00000010
00110000
00000000
00000000
00000000
00000000
00000000
,
00000000
10000100
00000100
00000101
,
00000100
00000010
01000000
00000010
,
00000000
00100100
00000000
00100100
,
00000000
01000010
00000000
01000010
,
00000000
00000010
00100000
00000010
,
00000000
01000000
00000100
01000000
,
00000000
00000000
00000100
00000000
00100000
00000000
00000100
00100000
,
00000100
00000000
00100000
00000000
00000100
00000000
00100000
00000100
,
00100000
00000011
00000000
11000000
,
00000000
00000010
00100000
00000100
,
00000000
01000000
01000000
00000010
,
00000010
00110000
00000000
00000000
,
00000000
01000000
01000000
00000010
,
00000010
01100000
00000000
00000000
,
00000000
10000101
00000000
00100000
,
00000000
00000100
00000000
00000000
,
00000000
11000001
00000000
00000010
,
00000000
01000000
00000000
00000000
,
00000000
00000101
00000000
10100000
,
00000000
00010100
00000000
00000000
,
00000000
00100000
00000000
00000000
,
00000000
00000100
00000000
00000000
,
00000000
00100100
00100000
01000000
,
00000000
01100000
00000000
00000110
,
00000000
10100000
00000000
00000101
,
00000000
01000000
00000010
01000000
,
00000000
00000000
00100000
00100000
00000100
00000100
00000010
00000010
,
01000000
01000000
00010100
00000000
00000000
00000000
00000000
00000000
,
00000000
00100001
00100000
10100000
,
00100000
01000000
00000010
01000000
,
00000000
00100100
00000000
00100100
,
00000000
01000010
00000000
01000010
,
00000000
01000000
00000100
01000000
,
00000000
00000010
00100000
00000010
,
00000000
00000110
00000000
00000110
,
00000000
01100000
00000000
01100000
,
00000000
00100000
01011000
00000000
;
#NOTEDATA:;
#STEPSTYPE:ds3ddx-single;
#DESCRIPTION:Power;
#DIFFICULTY:Medium;
#METER:6;
#RADARVALUES:;
#BPMS:0.000=138.289;
#STOPS:0.000=0.000;
#DELAYS:;
#NOTES:
00000000
00000000
00000000
00000000
,
00000000
00000000
00000000
00000000
,
00000000
00000000
00000000
00000000
,
00000000
00000000
00000000
00000000
,
00000000
00000011
00000010
00000101
,
00000100
00000000
00000010
00000000
00000100
00000000
00000010
01000000
,
00000010
00110000
00100000
00010100
,
00000100
00000000
00100000
00000000
00000100
00000000
00100000
00000100
,
00100000
00000000
00100000
00000000
00000010
00000000
00100000
00000010
,
00100000
00000000
00010100
00000001
00000000
00000000
00000000
00000000
,
00000000
00000100
00000110
00100000
,
01100000
00100100
00000000
00000000
,
00000000
00000000
00110100
00000000
00000101
00000000
00000011
00000001
,
00000001
00000000
00000000
00000000
00000110
00010000
00000000
00000000
00000000
00000000
00000000
00000000
01100000
00010000
00000000
00000000
,
00000000
00000101
00000100
00100001
,
00100000
00000010
00000010
01000000
,
01000000
00000000
00000010
00100000
00000100
01000000
00000010
00100000
,
00000010
01000000
00110000
00000000
00000000
00000000
00000000
00000000
,
00000000
10000100
00000101
10000100
,
00000101
00000010
01000000
00000010
,
00000000
00010000
00100000
00010000
00100000
00000000
00000100
01000000
,
01000000
10000000
00000100
00000001
00000100
00000000
01000000
00000010
,
00000010
00000000
00100000
00000000
00000010
00000000
00100000
00000010
,
01000000
00000010
01000000
00000000
00000100
00000000
01000000
00000100
,
01000000
00000000
00000101
00000000
10100000
00000000
00000100
00100000
,
00000100
00000000
00100000
00000000
00000100
00000000
00100000
00000010
,
01000000
00000000
00000011
00000000
11000000
00000000
00000010
01000000
,
00000010
00000000
01000000
00000000
00000010
00000000
01000000
00000100
,
00100000
00000000
00000100
00000000
01000000
00000000
00000100
01000000
,
00000100
00000000
00110000
10000000
00000000
00000000
00000000
00000000
,
00000000
00100000
01100000
00000100
,
00000110
00100100
00000000
00000000
,
00000000
10000101
00000000
00100000
,
00000000
00000100
00100000
00000000
,
00000000
11000001
00000000
00000010
,
00000000
01000000
00000010
00000000
,
00000000
00100001
00000000
10000100
,
00000000
01010000
00000000
00000000
,
00000000
00000100
00000000
00000000
,
00000000
00100000
00000000
00000000
,
00000000
00000000
00110100
00000000
10100000
00000000
11000000
10000000
,
10000000
00000000
00000000
00000000
01100000
00010000
00000000
00000000
00000000
00000000
00000000
00000000
00000110
00010000
00000000
00000000
,
00000000
10100000
00100000
10000100
,
00000100
01000000
01000000
00000010
,
00000010
00000000
01000000
00000100
00100000
00000010
01000000
00000100
,
01000000
00000010
00010100
00000000
00000000
00000000
00000000
00000000
,
00000000
00100001
10100000
00100001
,
10100000
01000000
00000010
01000000
,
00000000
00010000
00000100
00010000
00000100
00000000
01000000
00000010
,
00000010
00000001
00100000
10000000
00100000
00000000
00000010
01000000
,
01000000
00000000
00000100
00000000
01000000
00000000
00000100
01000000
,
00000010
01000000
00000010
00000000
00100000
00000000
00000010
00000000
,
00000000
10000000
01000000
00000001
00000010
00000000
00100000
00000100
,
00000100
00010000
00100000
00010000
00000100
00000000
01000000
00000010
,
00000010
00000000
00100000
00000000
01000000
00111000
00000000
00000000
;
#NOTEDATA:;
#STEPSTYPE:ds3ddx-double;
#DESCRIPTION:Dual;
#DIFFICULTY:Medium;
#METER:6;
#RADARVALUES:;
#BPMS:0.000=138.289;
#STOPS:0.000=0.000;
#DELAYS:;
#NOTES:
0000000000000000
0000000000000000
0000000000000000
0000000000000000
,
0000000000000000
0000000000000000
0000000000000000
0000000000000000
,
0000000000000000
0000000000000000
0000000000000000
0000000000000000
,
0000000000000000
0000000000000000
0000000000000000
0000000000000000
,
0000000000000000
0000001100000000
0000001000000000
0000010100000000
,
0000010000000000
0000000000000000
0000000001000000
0000000000000000
0000000000100000
0000000000000000
0000000000000100
0000000000000010
,
0000000000000100
0000000011000000
0000000001000000
0000000010100000
,
0000000000100000
0000000000000000
0000001000000000
0000000000000000
0000010000000000
0000000000000000
0010000000000000
0100000000000000
,
0010000000000000
0000000000000000
0000001000000000
0000000000000000
0000010000000000
0000000000000000
0000000000100000
0000001000000000
,
0000000000100000
0000000000000000
0001010000000000
0000000000010000
0000000000000000
0000000000000000
0000000000000000
0000000000000000
,
0000000000000000
0000010000000000
0000011000000000
0000000000100000
,
0000000001100000
0000010000100000
0000000000000000
0000000000000000
,
0000000000000000
0000000000000000
0000000000110100
0000000000000000
0000000000100000
0000000000000000
0000000011000000
0000000010000000
,
0000000010000000
0000000000000000
0000000000000001
0000000000000000
0000000000100000
0000000000000000
0000000000000000
0000000000000100
,
0000000000000100
0000000010100000
0000000000100000
0000000010000100
,
0000000000000100
0000000001000000
0000000001000000
0000000000000010
,
0000000000000010
0000000000000000
0000000000000010
0000000000100000
0000000001000000
0000001000000000
0000010000000000
0010000000000000
,
0000001000000000
0100000000000000
0011000000000000
0000000000000000
0000000000000000
0000000000000000
0000000000000000
0000000000000000
,
0000000000000000
1000010000000000
0000010100000000
1000010000000000
,
0000010100000000
0000001000000000
0000001000000000
0100000000000000
,
0000000000000000
0001000000000000
0010000000000000
0001000000000000
0010000000000000
0000000000000000
0000010000000000
0100000000000000
,
0100000000000000
1000000000000000
0000010000000000
0000000100000000
0000010000000000
0000000000000000
0100000000000000
0000001000000000
,
0000001000000000
0000000000000000
0010000000000000
0000000000000000
0000001000000000
0000000000000000
0000010000000000
0000000000100000
,
0000000001000000
0000000000000010
0000000001000000
0000000000000000
0000000000000100
0000000000000000
0000000001000000
0000000000000100
,
0000000001000000
0000000000000000
0000000010100000
0000000000000000
0000000001000000
0000000000000000
0000010000000000
0000001000000000
,
0000010000000000
0000000000000000
0100000000000000
0000000000000000
0010000000000000
0000000000000000
0010000000000000
0100000000000000
,
0000001000000000
0000000000000000
0000010100000000
0000000000000000
0000001000000000
0000000000000000
0000000000100000
0000000001000000
,
0000000000100000
0000000000000000
0000000000000010
0000000000000000
0000000000000100
0000000000000000
0000000000000010
0000000001000000
,
0000000000000010
0000000000000000
0000000001000000
0000000000000000
0000000000100000
0000000000000000
0000010000000000
0000000001000000
,
0000010000000000
0000000000000000
0000000000110000
0001000000000000
0000000000000000
0000000000000000
0000000000000000
0000000000000000
,
0000000000000000
0000000000100000
0000000001100000
0000010000000000
,
0000011000000000
0000010000100000
0000000000000000
0000000000000000
,
0000000000000000
0001010000010000
0000000000000000
0000000000100000
,
0000000000000000
0000010000000000
0000000000100000
0000000000000000
,
0000000000000000
0000000001001000
0000000000000000
0000000000000010
,
0000000000000000
0000000001000000
0000000000000010
0000000000000000
,
0000000000000000
0000000000100001
0000000000000000
0000000010000100
,
0000000000000000
0000000001010000
0000000000000000
0000000000000000
,
0000000000000000
0000010000000000
0000000000000000
0000000000000000
,
0000000000000000
0010000000000000
0000000000000000
0000000000000000
,
0000000000000000
0000000000000000
0011010000000000
0000000000000000
0010000000000000
0000000000000000
1100000000000000
1000000000000000
,
1000000000000000
0000000000000000
0000000100000000
0000000000000000
0010000000000000
0000000000000000
0000000000000000
0000010000000000
,
0000010000000000
1010000000000000
0010000000000000
1000010000000000
,
0000010000000000
0100000000000000
0100000000000000
0000001000000000
,
0000001000000000
0000000000000000
0100000000000000
0000010000000000
0000001000000000
0000000001000000
0000000000100000
0000000000000100
,
0000000001000000
0000000000000010
0000000000010100
0000000000000000
0000000000000000
0000000000000000
0000000000000000
0000000000000000
,
0000000000000000
0000000000100001
0000000010100000
0000000000100001
,
0000000010100000
0000000001000000
0000000001000000
0000000000000010
,
0000000000000000
0000000000010000
0000000000000100
0000000000010000
0000000000000100
0000000000000000
0000000001000000
0000000000000010
,
0000000000000010
0000000000000001
0000000000100000
0000000010000000
0000000000100000
0000000000000000
0000000000000010
0000000001000000
,
0000000001000000
0000000000000000
0000000000000100
0000000000000000
0000000001000000
0000000000000000
0000000000100000
0000010000000000
,
0000001000000000
0100000000000000
0000001000000000
0000000000000000
0010000000000000
0000000000000000
0000001000000000
0000000000000000
,
0000000000000000
1000000000000000
0100000000000000
0000000100000000
0000001000000000
0000000000000000
0010000000000000
0000010000000000
,
0000010000000000
0001000000000000
0010000000000000
0001000000000000
0000010000000000
0000000000000000
0100000000000000
0000001000000000
,
0000001000000000
0000000000000000
0100000000000000
0000001000000000
0000010000000000
0000000110000000
0000000000000000
0000000000000000
;
