#TITLE:Good Night;
#SUBTITLE:;
#ARTIST:듀크 (DUKE);
#TITLETRANSLIT:;
#SUBTITLETRANSLIT:;
#ARTISTTRANSLIT:;
#CREDIT:locuuraa [from 37.mp];
#BANNER:Good Night.png;
#BACKGROUND:Good Night.png;
#LYRICSPATH:;
#CDTITLE:../CDTitles/3DDX.png;
#MUSIC:Good Night.mp3;
#OFFSET:0.115;
#SAMPLESTART:28.500;
#SAMPLELENGTH:10.000;
#DISPLAYBPM:141.0;
#BGCHANGES:;
#NOTEDATA:;
#STEPSTYPE:ds3ddx-single;
#DESCRIPTION:Pretty;
#DIFFICULTY:Easy;
#METER:5;
#RADARVALUES:;
#BPMS:0.000=141.000;
#STOPS:0.000=0.000;
#DELAYS:;
#NOTES:
00000000
00000000
00000000
00000000
,
00000000
00000000
00000000
00000000
,
00000000
00000000
00000000
00000000
,
00000000
00000000
00000000
00000000
,
00000000
00000000
00000000
00000000
,
00000000
00000000
00000000
00000000
,
00100000
00000100
00100000
00000100
,
10000000
00010000
00000001
00010000
,
00000010
01000000
00000010
01000000
,
01000010
01000010
00100100
00100100
,
00000100
00000010
00100000
01000000
,
00000011
01000000
00000011
01000000
,
00000001
00010000
10000000
00010000
,
00000010
01000000
00000010
01000010
,
10000001
00000000
00010000
00000000
,
00000001
00000000
00000000
00000000
,
00000000
00000000
00000000
00000000
,
11000000
00000010
11000000
00000010
,
00000100
01000000
00000100
00000100
,
01000000
00000000
00000010
00000000
,
10000001
00000000
00010000
10000001
,
00000010
00000001
01000000
10000000
,
00100000
00000101
00000100
10100000
,
00000010
00000000
01000000
00000000
,
00000100
01010000
00000000
00000000
,
00000100
00100000
00000100
00100000
,
00010011
00000000
00000000
00000000
,
00100000
00000100
00100000
00000100
,
00000010
00000100
00100000
01000000
,
00000011
00000000
00000000
00000000
,
10100000
00000000
00000101
00000000
,
01000010
00000000
00000000
00000000
,
10000001
00000000
00010000
10000001
,
00010100
00010100
11000000
11000000
,
00000100
00100000
00000011
00000011
,
01000000
10000000
00000010
00000001
,
00000100
00100000
00000010
00100000
,
00000101
00000101
10100000
10100000
,
00100100
00100100
00000010
01000000
,
00000100
10100000
00100000
00000101
,
01000000
00000000
00000010
00000000
,
10100000
00000000
00000000
00000000
,
00000010
01000000
00000010
00000010
,
01000000
00000010
01000000
01000000
,
00000101
00000000
10100000
00000000
,
00000100
00100000
10000001
10000001
,
00010100
00010100
11000000
11000000
,
00000100
00100000
00000011
00000011
,
01000000
10000000
00000010
00000001
,
00000100
00100000
00000010
00100000
,
00000101
00000101
10100000
10100000
,
00100100
00100100
00000010
01000000
,
00000100
10100000
00100000
00000101
,
01000000
01000000
00000010
01000000
,
00000100
00100000
00000100
00000100
,
01000000
00000010
01000000
01000000
,
00000100
00100000
00000100
00000100
,
00100000
00000100
01000000
00000010
,
10000001
00000000
00000000
00000000
;
#NOTEDATA:;
#STEPSTYPE:ds3ddx-single;
#DESCRIPTION:Power;
#DIFFICULTY:Medium;
#METER:6;
#RADARVALUES:;
#BPMS:0.000=141.000;
#STOPS:0.000=0.000;
#DELAYS:;
#NOTES:
00000000
00000000
00000000
00000000
,
00000000
00000000
00000000
00000000
,
00000000
00000000
00000000
00000000
,
00000000
00000000
00000000
00000000
,
00000000
00000000
00000000
00000000
,
00000000
00000000
00000000
00000000
,
00100000
00010000
00000100
00010000
00100000
00000001
00000100
10000000
,
00100000
00010000
00000010
00000010
01000000
00000100
00100000
00000000
,
00100100
00100100
01000010
01000010
,
00100000
01000000
00000100
01000000
,
00100100
00010010
00100100
01010000
,
11000000
00000000
00000011
00000000
00100000
00000100
11000000
00000000
,
00000011
00000000
11000000
00000000
00000100
00100000
00000011
00000000
,
01010000
01010000
00000100
01000010
,
10000001
00000000
00010000
00000000
,
00000001
00000000
00000000
00000000
,
00000000
00000000
00000000
00000000
,
11000001
00000010
11000001
00000010
,
00000100
01000000
00010100
00010100
,
00100000
11000000
00000100
00000011
,
10000001
00000000
00110000
10000101
,
01000000
00000001
00000010
10000000
,
00100000
10000101
00000100
10100001
,
00000010
00000100
01000000
00100000
,
00000101
01010000
00000000
00000000
,
00000100
00000011
00000100
00000011
,
10110000
00000000
00000000
00000000
,
00100000
11000000
00100000
11000000
,
00000010
00000100
00100000
01000000
,
00000011
00000000
00000000
00000000
,
01100000
00000000
00000110
00000000
,
10000001
00000000
00000000
00000000
,
10000001
00000000
00010000
10000001
,
00010101
00010101
10110000
10110000
,
00010101
10110000
00010101
00010101
,
01000000
00000010
00000101
00000000
00000010
01000000
10100000
00000000
,
00000100
00100000
00000010
10110000
,
00000101
11000000
00000101
00000000
10100000
00000011
10100000
00000000
,
00100100
00100100
00000010
01000000
,
00100000
00000100
10011010
00000000
00000100
00100000
01011001
00000000
,
00000010
00000010
00000100
00000100
,
11000000
00000000
00000000
00000000
,
10000011
01000000
00000011
00000011
,
11000001
00000010
11000000
11000000
,
00000100
00100000
10000101
10000101
,
00100000
00000100
00010000
10000001
,
00010101
00010101
10110000
10110000
,
00010101
10110000
00010101
00010101
,
01000000
00000010
00000101
00000000
00000010
01000000
10100000
00000000
,
00000100
00100000
00000010
10110000
,
00000101
11000000
00000101
00000000
10100000
00000011
10100000
00000000
,
00100100
00100100
00000010
01000000
,
00100000
00000100
10011010
00000000
00000100
00100000
01011001
00000000
,
00000010
00000010
00000100
00100000
,
00000011
11000000
00010100
00010100
,
11000000
00000011
00110000
00110000
,
00000100
00100000
00010010
01010000
,
00000100
00100000
00010010
01010000
,
10000001
00000000
00000000
00000000
;
#NOTEDATA:;
#STEPSTYPE:ds3ddx-double;
#DESCRIPTION:Dual;
#DIFFICULTY:Medium;
#METER:6;
#RADARVALUES:;
#BPMS:0.000=141.000;
#STOPS:0.000=0.000;
#DELAYS:;
#NOTES:
0000000000000000
0000000000000000
0000000000000000
0000000000000000
,
0000000000000000
0000000000000000
0000000000000000
0000000000000000
,
0000000000000000
0000000000000000
0000000000000000
0000000000000000
,
0000000000000000
0000000000000000
0000000000000000
0000000000000000
,
0000000000000000
0000000000000000
0000000000000000
0000000000000000
,
0000000000000000
0000000000000000
0000000000000000
0000000000000000
,
0000000000100000
0000000000000100
0000000000100000
0000000000000100
,
0000000000100000
0000000001000000
0000010000000000
0000001000000000
0010000000000000
0000010000000000
0100000000000000
0000000000000000
,
0010010000000000
0010010000000000
0100001000000000
0100001000000000
,
0010000000000000
0100000000000000
0000010000000000
0100000000000000
,
0010010000000000
0100000000000000
0010010000000000
0000001000000000
,
0000000001000000
0000000000000000
0000001000000000
0000000000000000
0000000000100000
0000000001000000
0000000000110000
0000000000000000
,
0000000001000000
0000000000000000
0000000000000010
0000000000000000
0000000000100000
0000000000000100
0000000001000001
0000000000000000
,
0000000000000010
0000000000010010
0000000000100000
0000000001000010
,
0000000010000001
0000000000000000
0000000000010000
0000000000000000
,
0000000000000001
0000000000000000
0000000000000000
0000000000000000
,
0000000000000000
0000000000000000
0000000000000000
0000000000000000
,
0000000011000001
0000000000000010
0000000011000001
0000000000000010
,
0000000000000100
0000000001000000
0000010000000000
0000010000000000
,
0010000000000000
1100000000000000
0000010000000000
0000001100000000
,
1000000100000000
0000000000000000
0001010000000000
0000000000100000
,
0000001000000000
0000000000010000
0000000001000000
0001000000000000
,
0000010000000000
0010000000000000
0010000000000000
1000010000000000
,
0000001000000000
0000010000000000
0000000000100000
0000000001000000
,
0000000000010100
0000000011000000
0000000000000000
0000000000000000
,
0000000000100000
0001101000000000
0000000000100000
0001101000000000
,
0001010000000000
0000000000000000
0000000000000000
0000000000000000
,
0000010000000000
0000000001011000
0000010000000000
0000000001011000
,
0000001000000000
0000010000000000
0000000000100000
0000000001000000
,
0000000000010100
0000000000000000
0000000000000000
0000000000000000
,
0000000000000110
0000000000000000
0000000001100000
0000000000000000
,
0000001000100000
0000000000000000
0000000000000000
0000000000000000
,
1000000000000000
0000000000000000
0001000000000000
1000000100000000
,
0001010100000000
0001010100000000
1011000000000000
1011000000000000
,
0001010100000000
1011000000000000
0001010100000000
0001010100000000
,
0000001000000000
0000000001000000
0000000000110000
0000000000000000
0000000001000000
0000001000000000
0001010000000000
0000000000000000
,
0000000001000000
0000000000100000
0000000000000010
0000000001000000
,
0000000000110000
0001101000000000
0000000000110000
0000000000000000
0001010000000000
0000000001011000
0001010000000000
0000000000000000
,
0000001001000000
0000001001000000
0000000001000000
0000001000000000
,
0000010000000000
0010000000000000
0101100100000000
0000000000000000
0010000000000000
0000010000000000
1001101000000000
0000000000000000
,
0000000001000000
0000000001000000
0000000000100000
0000000000100000
,
0000000000000011
0000000000000000
0000000000000000
0000000000000000
,
0000000011000001
0000000000000010
0000000001000001
0000000001000001
,
0000000000100000
0000010000000000
0001001000000000
0001001000000000
,
1100000100000000
0000001000000000
0100000100000000
0100000100000000
,
0001010000000000
0011000000000000
1000000100000000
0001000000000000
,
0001010100000000
0001010100000000
1011000000000000
1011000000000000
,
0001010100000000
1011000000000000
0001010100000000
0001010100000000
,
0000001000000000
0000000001000000
0000000000110000
0000000000000000
0000000001000000
0000001000000000
0001010000000000
0000000000000000
,
0000000001000000
0000000000100000
0000000000000010
0000000001000000
,
0000000000110000
0001101000000000
0000000000110000
0000000000000000
0001010000000000
0000000001011000
0001010000000000
0000000000000000
,
0000001001000000
0000001001000000
0000000001000000
0000001000000000
,
0000010000000000
0010000000000000
0100000100000000
0000000000000000
0010000000000000
0000010000000000
1000001000000000
0000000000000000
,
0000000001000000
0000000001000000
0000010000000000
0000000000100000
,
0000000001000000
0000000000000010
0000000011000000
0000000011000000
,
0000000000100000
0000010000000000
0000001000000000
0000001100000000
,
1100000000000000
0000001100000000
0011000000000000
0011000000000000
,
0000001100000000
1100000000000000
0001010000000000
0001010000000000
,
1010000000000000
0000000000000000
0000000000000000
0000000000000000
;
