#TITLE:가;
#SUBTITLE:Go Away;
#ARTIST:투야 (TO-YA);
#TITLETRANSLIT:;
#SUBTITLETRANSLIT:;
#ARTISTTRANSLIT:;
#CREDIT:locuuraa [from 62.mp];
#BANNER:Go Away.png;
#BACKGROUND:Go Away.png;
#LYRICSPATH:;
#CDTITLE:../CDTitles/3DDX.png;
#MUSIC:Go Away.mp3;
#OFFSET:-0.162;
#SAMPLESTART:45.500;
#SAMPLELENGTH:10.000;
#DISPLAYBPM:103.0;
#BGCHANGES:;
#NOTEDATA:;
#STEPSTYPE:ds3ddx-single;
#DESCRIPTION:Pretty;
#DIFFICULTY:Easy;
#METER:3;
#RADARVALUES:;
#BPMS:0.000=103.040;
#STOPS:0.000=0.000;
#DELAYS:;
#NOTES:
00000000
00000000
00000000
00000000
,
00000000
00000000
00000000
00000000
,
01000010
00000000
00000000
00000001
00000000
00000000
00000000
00000000
,
00100100
00000000
00000000
10000000
00000000
00000000
00000000
00000000
,
00000100
00100000
00000100
10000000
,
01000000
00000010
01000000
00000001
,
00000100
00100000
01000000
00000010
,
01000000
01000000
01000000
00000000
00000010
00000000
00000000
00000000
,
10100000
00000000
00000100
00000000
00100000
00100000
00100000
00000000
,
00000100
00000010
01000000
00010000
,
00100000
00000100
01000000
00000010
,
01000010
00000000
00100100
00000000
,
01000000
10000010
00000010
01000001
,
00000010
00000000
00000010
00000000
,
00000100
00100001
00100000
10000100
,
00100000
00000000
00010000
00000000
00100000
00100000
00100000
00000000
,
00000100
00000100
00100000
00100000
,
00000010
01000000
01000010
00000000
,
00010100
00000000
01000000
00000000
,
00000001
10000000
00000101
00000000
00100000
00000000
00000000
00000000
,
00100100
00000000
00100100
00000000
,
10000000
01000000
00000001
00000010
,
01000000
00000010
00100000
00000100
,
10110000
00000000
00010101
00000000
,
01000000
01000000
00000010
00000010
,
00100000
00000100
00000010
01000000
,
00000100
00000100
00000101
00000000
00100000
00100000
10100000
00000000
,
00100100
00000000
00000000
00000000
,
01000010
00000001
01000010
10000000
,
00000001
10000000
00010100
00000000
,
00000010
01000000
00000100
00100000
,
00010101
00000000
10110000
00000000
,
00000010
00000010
01000000
01000000
,
00000100
00100000
01000000
00000010
,
00100000
00100000
10100000
00000000
00000100
00000100
00000101
00000000
,
00100100
00000000
00000000
00000000
,
01000000
00000010
00110000
00000000
,
00000000
00000000
00000000
00000000
,
00000000
00000000
00000000
01011000
00000000
00000000
00000000
00000000
;
#NOTEDATA:;
#STEPSTYPE:ds3ddx-single;
#DESCRIPTION:Power;
#DIFFICULTY:Medium;
#METER:4;
#RADARVALUES:;
#BPMS:0.000=103.040;
#STOPS:0.000=0.000;
#DELAYS:;
#NOTES:
00000000
00000000
00000000
00000000
,
00000000
00000000
00000000
00000000
,
01000010
00000000
00000000
00000011
00000000
00000000
00000000
00000000
,
00100100
00000000
00000000
10100000
00000000
00000000
00000000
00000000
,
00100000
00000000
00000100
00000000
00100000
00000001
10000000
00000000
,
00000010
00000000
01000000
00000000
00000010
01000000
00000010
00000000
,
00010000
00100100
01000000
00000010
,
01000000
00100000
01000000
00000000
00000010
00000000
00110000
00000000
,
10000101
00000000
00000100
00000000
00000100
00100000
00000100
00000000
,
00100100
00000000
00000010
00000000
01000000
00000000
00000001
00010000
,
00100000
00000100
00100000
00000010
,
00100010
00000000
01000100
00000000
01000000
00100000
01000000
00000100
,
10100001
00100100
00100000
00011000
,
00000100
00100000
00000100
11000011
,
00110000
00100000
00000100
00000110
,
00010100
00000000
00010100
00000000
00010100
00010100
00010100
00000000
,
00000100
00000010
00000100
00000000
00100000
00000100
00100000
00000000
,
00000010
01000000
00000010
00000010
,
10000001
00000100
01000000
01000000
,
00000101
10000100
00000101
00000000
00100000
00000010
01000000
00000000
,
00100100
00010000
00100100
00010000
,
00010000
00000000
01000000
00000100
00110000
00000000
00100100
00000000
,
00000010
01000000
00000100
00100000
,
10000000
00000100
00000001
00000000
00100000
00000100
00100000
00000000
,
00000010
01000010
01000000
01000010
,
00000010
00000010
01000000
01000000
,
00000100
00100000
00000101
00000000
00100000
00000100
10100000
00000000
,
01000100
00000000
00000000
00000000
,
00100100
00010000
00100100
00010000
,
00010000
00000000
00000010
01000000
00010100
00000000
00100100
00000000
,
01000000
00000010
00100000
00000100
,
00000001
00100000
10000000
00000000
00000100
00100000
00000100
00000000
,
01000000
01000010
00000010
01000010
,
01000000
01000000
00000010
00000010
,
00100000
00000100
10100000
00000000
00000100
00100000
00000101
00000000
,
00100010
00000000
00000000
00000000
,
01000000
00000100
00100000
00000101
00010000
00000000
00000000
00000000
,
00000000
00000000
00000000
00000000
,
00000000
00000000
00000000
01011000
10000000
00000000
00000000
00000000
;
#NOTEDATA:;
#STEPSTYPE:ds3ddx-double;
#DESCRIPTION:Dual;
#DIFFICULTY:Medium;
#METER:4;
#RADARVALUES:;
#BPMS:0.000=103.040;
#STOPS:0.000=0.000;
#DELAYS:;
#NOTES:
0000000000000000
0000000000000000
0000000000000000
0000000000000000
,
0000000000000000
0000000000000000
0000000000000000
0000000000000000
,
0000001001000000
0000000000000000
0000000000000000
0000000000110000
0000000000000000
0000000000000000
0000000000000000
0000000000000000
,
0000010000100000
0000000000000000
0000000000000000
0000001000000000
0000000000000000
0000000000000000
0000000000000000
0000000000000000
,
0000010000000000
0000000000000000
0010000000000000
0000000000000000
0000010000000000
0000000100000000
1000000000000000
0000000000000000
,
0000010000000000
0000000000000000
0000001000000000
0000000000000000
0000000000100000
0000010000000000
0000000000100000
0000000000000000
,
0000000000010000
0000000001100000
0000000001000000
0000000000000010
,
0000000001000000
0000000000100000
0000000001000000
0000000000000000
0000000000000010
0000000000000000
0000000000110000
0000000000000000
,
0000000010000101
0000000000000000
0000000000000100
0000000000000000
0000000000100000
0000000000000100
0000000000100000
0000000000000000
,
0000000001100000
0000000000000000
0000001000000000
0000000000000000
0000000000100000
0000000000000000
0000000000010000
0001000000000000
,
0000010000000000
0000000000100000
0000001000000000
0000000001000000
,
0000001000100000
0000000000000000
0000010001000000
0000000000000000
0000001000000000
0000010000000000
0000001000000000
0000000001000000
,
0000000000101000
0000000000000110
0000000000100000
0000000000011000
,
0000000000000010
0000000000100000
0000000000000100
0000000011000011
,
0000000000110000
0000000001000000
0000000000000100
0000000000000110
,
0000000000010100
0000000000000000
0000000000100000
0000000000000000
0001010000000000
0001010000000000
0001010000000000
0000000000000000
,
0000010000000000
0000001000000000
0000010000000000
0000000000000000
0010000000000000
0000010000000000
0010000000000000
0000000000000000
,
0000010000000000
0000001000000000
0000000001000000
0000000000100000
,
0000000000001000
0000000000000010
0000000001000000
0000000001000000
,
0000000000000101
0000000010000100
0000000000000101
0000000000000000
0000000000100000
0000000000000010
0000000001000000
0000000000000000
,
0000000000100100
0000000000010000
0000010000100000
0001000000000000
,
0001000000000000
0000000000000000
0100000000000000
0000010000000000
0011000000000000
0000000000000000
0010010000000000
0000000000000000
,
0000001000000000
0100000000000000
0000010000000000
0010000000000000
,
1000000000000000
0000010000000000
0000000100000000
0000000000000000
0000010000000000
0000001000000000
0000010000000000
0000000000000000
,
0000001000000000
0000001001000000
0000000001000000
0000001001000000
,
0000000001000000
0000000001000000
0000000000100000
0000000000100000
,
0000000000000100
0000000000100000
0000000000000101
0000000000000000
0000000000100000
0000000000000100
0000000010100000
0000000000000000
,
0000000001000100
0000000000000000
0000000000000000
0000000000000000
,
0000000000000110
0000000000000001
0000000001100000
0000000010000000
,
0000000010000000
0000000000000000
0000000001000000
0000000000100000
0001010000000000
0000000000000000
0000010000100000
0000000000000000
,
0000000001000000
0000001000000000
0000010000000000
0010000000000000
,
0000000100000000
0010000000000000
1000000000000000
0000000000000000
0000010000000000
0010000000000000
0000010000000000
0000000000000000
,
0000001000000000
0000011000000000
0000000001000000
0000000001100000
,
0000000000000010
0000000000000010
0000000001000000
0000000001000000
,
0000000000000100
0000000000100000
0000000000000101
0000000000000000
0000000000100000
0000000000000100
0000000010100000
0000000000000000
,
0000000001000100
0000000000000000
0000000000000000
0000000000000000
,
0000001000000000
0000000000100000
0000001000000000
0000000000110000
0001000000000000
0000000000000000
0000000000000000
0000000000000000
,
0000000000000000
0000000000000000
0000000000000000
0000000000000000
,
0000000000000000
0000000000000000
0000000000000000
0000000001011000
0001100000000000
0000000000000000
0000000000000000
0000000000000000
;
