#VERSION:0.83;
#TITLE:Gimme Hope Jo'Anna;
#SUBTITLE:;
#ARTIST:House Cream Feat.Duffy;
#TITLETRANSLIT:;
#SUBTITLETRANSLIT:;
#ARTISTTRANSLIT:;
#GENRE:;
#ORIGIN:;
#TAGS:;
#CREDIT:locuuraa [from video];
#BANNER:;
#BACKGROUND:;
#PREVIEWVID:;
#JACKET:;
#CDIMAGE:;
#DISCIMAGE:;
#LYRICSPATH:;
#CDTITLE:;
#MUSIC:Gimme Hope Jo'Anna.mp3;
#OFFSET:-0.652000;
#SAMPLESTART:71.140068;
#SAMPLELENGTH:11.040005;
#SELECTABLE:YES;
#DISPLAYBPM:136.000000;
#BPMS:0.000000=60.000000
;
#STOPS:;
#DELAYS:;
#WARPS:;
#TIMESIGNATURES:0.000000=4=4
;
#TICKCOUNTS:0.000000=4
;
#COMBOS:0.000000=1
;
#SPEEDS:0.000000=1.000000=0.000000=0
;
#SCROLLS:0.000000=1.000000
;
#FAKES:;
#LABELS:0.000000=Song Start
;
#BGCHANGES:;
#KEYSOUNDS:;
#ATTACKS:
;

//---------------ds3ddx-single - Pretty----------------
#NOTEDATA:;
#CHARTNAME:;
#CHARTHASH:798929122;
#STEPSTYPE:ds3ddx-single;
#BANNER:;
#DESCRIPTION:Pretty;
#CHARTSTYLE:;
#DIFFICULTY:Easy;
#METER:3;
#METERF:0.000000;
#LASTSECONDHINT:91.914352;
#RADARVALUES:0.171236,0.333679,0.075591,0.000000,0.000000,111.000000,104.000000,7.000000,0.000000,0.000000,0.000000,0.000000,0.000000,0.000000,0.171236,0.333679,0.075591,0.000000,0.000000,111.000000,104.000000,7.000000,0.000000,0.000000,0.000000,0.000000,0.000000,0.000000;
#CREDIT:;
#OFFSET:-1.031999;
#BPMS:0.000000=136.000000
;
#STOPS:;
#DELAYS:;
#WARPS:;
#TIMESIGNATURES:0.000000=4=4
;
#TICKCOUNTS:0.000000=4
;
#COMBOS:0.000000=1
;
#SPEEDS:0.000000=1.000000=0.000000=0
;
#SCROLLS:0.000000=1.000000
;
#FAKES:;
#LABELS:0.000000=Song Start
;
#DISPLAYBPM:136.000000;
#NOTES:
// measure 0
00000000
00000000
00000000
00000000
,  // measure 1
00000000
00000000
00000000
00000000
,  // measure 2
00000000
00000000
00000000
00000000
,  // measure 3
00000000
00000000
00000000
00000000
,  // measure 4
00000000
00000000
00000000
00000000
,  // measure 5
00000000
00000000
00000000
00000000
,  // measure 6
00000000
00000000
00000000
00000000
,  // measure 7
00000000
00000000
00000000
00000000
,  // measure 8
00100000
00000000
00000000
00000000
,  // measure 9
00000100
00000000
00000000
00000000
,  // measure 10
00100000
00000000
00000000
00000000
,  // measure 11
00000100
00000000
00000000
00000000
,  // measure 12
01000000
00000000
00000000
00000000
,  // measure 13
00000010
00000000
00000000
00000000
,  // measure 14
01000000
00000000
00000000
00000000
,  // measure 15
00000010
00000000
00000000
00000000
,  // measure 16
00100000
00000100
00100000
00000000
,  // measure 17
00000100
00100000
00000100
00000000
,  // measure 18
00100000
00000010
00100000
00000000
,  // measure 19
00000010
01000000
00000010
00000000
,  // measure 20
10000000
00010000
10000000
00000000
,  // measure 21
00000001
00010000
00000001
00000000
,  // measure 22
00100000
00000100
01000000
00000000
,  // measure 23
10000001
00000000
00000000
00000000
,  // measure 24
00100000
00100000
00100000
00000000
,  // measure 25
00000100
00000100
00000100
00000000
,  // measure 26
10000000
00000001
10000000
00000001
,  // measure 27
10000000
00000000
00000000
00000000
,  // measure 28
00000010
00000010
00000010
00000000
,  // measure 29
01000000
01000000
01000000
00000000
,  // measure 30
10000000
00000001
10000000
00000001
,  // measure 31
10000000
00000000
00000000
00000000
,  // measure 32
01000000
00000000
01000000
00000000
,  // measure 33
00000010
00000000
00000010
00000000
,  // measure 34
01000000
00000000
00000010
00000000
,  // measure 35
11000000
00000000
00000000
00000000
,  // measure 36
00000010
00000000
01000000
00000000
,  // measure 37
00000011
00000000
00000000
00000000
,  // measure 38
00100000
00000000
00000100
00000000
,  // measure 39
00100100
00000000
00000000
00000000
,  // measure 40
01000000
00000010
01000000
00000000
,  // measure 41
00000010
01000000
00000010
00000000
,  // measure 42
00000010
01000000
00000010
00000010
,  // measure 43
00000010
01000000
00000010
00000000
,  // measure 44
00000100
00100000
00000100
00000000
,  // measure 45
00000100
00100000
00000100
00000000
,  // measure 46
00100000
00000100
00100000
00100000
,  // measure 47
00100000
00000000
00000000
00000000
,  // measure 48
00100000
00000100
01000000
00000010
,  // measure 49
01000000
00000010
00100000
00000100
,  // measure 50
10100000
00000100
00100000
00000010
,  // measure 51
01000000
00000011
01000010
00000000
;

//---------------ds3ddx-single - Power----------------
#NOTEDATA:;
#CHARTNAME:;
#CHARTHASH:436183390;
#STEPSTYPE:ds3ddx-single;
#BANNER:;
#DESCRIPTION:Power;
#CHARTSTYLE:;
#DIFFICULTY:Medium;
#METER:3;
#METERF:0.000000;
#LASTSECONDHINT:0.652000;
#RADARVALUES:0.000000,0.000000,0.000000,0.000000,0.000000,0.000000,0.000000,0.000000,0.000000,0.000000,0.000000,0.000000,0.000000,0.000000,0.000000,0.000000,0.000000,0.000000,0.000000,0.000000,0.000000,0.000000,0.000000,0.000000,0.000000,0.000000,0.000000,0.000000;
#CREDIT:;
#OFFSET:-0.652000;
#BPMS:0.000000=136.000000
;
#STOPS:;
#DELAYS:;
#WARPS:;
#TIMESIGNATURES:0.000000=4=4
;
#TICKCOUNTS:0.000000=4
;
#COMBOS:0.000000=1
;
#SPEEDS:0.000000=1.000000=0.000000=0
;
#SCROLLS:0.000000=1.000000
;
#FAKES:;
#LABELS:0.000000=Song Start
;
#DISPLAYBPM:136.000000;
#NOTES:
00000000
00000000
00000000
00000000
;
