#TITLE:壁虎漫步;
#SUBTITLE:Gecko Walk;
#ARTIST:潘玮柏 (Will Pan);
#TITLETRANSLIT:bìhǔ mànbù;
#SUBTITLETRANSLIT:;
#ARTISTTRANSLIT:Pānwěibǎi;
#CREDIT:locuuraa [from 54.mp];
#BANNER:Gecko Walk.png;
#BACKGROUND:Gecko Walk.png;
#LYRICSPATH:;
#CDTITLE:../CDTitles/3DDX.png;
#MUSIC:Gecko Walk.mp3;
#OFFSET:-0.147;
#SAMPLESTART:71.000;
#SAMPLELENGTH:10.000;
#DISPLAYBPM:96.0;
#BGCHANGES:;
#NOTEDATA:;
#STEPSTYPE:ds3ddx-single;
#DESCRIPTION:Pretty;
#DIFFICULTY:Easy;
#METER:4;
#RADARVALUES:;
#BPMS:0.000=95.985;
#STOPS:0.000=0.000;
#DELAYS:;
#NOTES:
00000000
00000000
00000000
00000000
,
00000000
00000000
00010100
00000000
,
00100000
00100000
00100000
00000000
00110000
00000000
00000000
00000000
,
00000100
00000100
00000100
00000000
00000000
00000000
00000000
00000000
,
00000000
00000000
00000100
00000000
00100000
00000100
00100000
00000000
,
00010100
00000000
00000000
00000000
00000100
00100000
00000100
00000000
,
00110000
00000000
10000101
00000000
,
10100001
00000000
00000100
00100000
,
01000000
00000010
00010000
10000000
,
00000100
00000100
00000100
00000000
00010000
00000000
00000001
00000000
,
01000000
01000000
01000000
00000000
00000100
00000000
00100000
00000000
,
00000010
01000000
01000001
00000000
,
00000000
00000000
00000000
00000000
00100000
00000000
00000100
00000100
,
00100000
00100000
00000100
00000100
00100000
00000000
01000000
00000000
,
00000100
00000010
00100001
00000000
,
10000100
00000000
01000001
00000000
,
10000010
00000000
00000000
00000000
01000000
01000000
00000010
00000010
,
00000100
00000100
00000100
00000000
00000010
00000010
01000000
01000000
,
00100000
00100000
00100000
00000000
00000011
00000000
00000000
00000000
,
11000000
00000000
00000100
00110000
,
00000100
00000100
00000100
00000000
00100000
00000000
01000000
00000000
,
00000100
00000010
01000000
00000010
,
01000000
00000000
00000101
00010000
,
00000101
00010000
00000100
00000010
,
00100000
01000000
00000010
00100000
,
10000100
00000000
00100001
00000000
,
01000000
00000100
00100001
00000000
,
10000100
00000000
00000010
00000000
,
00000100
00100000
01000000
00000000
,
00000100
00000000
00000010
00000100
00000010
00000000
00000000
00000000
,
00100000
00000000
00000000
00000000
01000000
00100000
01000000
00000000
,
00100000
00000000
01000000
00000000
00100000
01000000
00100000
00000000
,
01000000
00000000
00000100
00000010
,
00000100
00000100
00010100
00000000
00100000
00000000
01000000
00000000
,
00100000
00100000
00110000
00000000
01100000
00000000
00000000
00000000
,
00000000
00000000
00000110
00000000
,
00000000
00000000
01000000
00100000
,
01000000
01000000
11000000
00000000
00000010
00000000
00000100
00000000
,
00000010
00000010
00000011
00000000
00000110
00000000
00000000
00000000
,
00000000
00000000
01100000
00000000
,
00000000
00000100
00000011
00000000
;
#NOTEDATA:;
#STEPSTYPE:ds3ddx-single;
#DESCRIPTION:Power;
#DIFFICULTY:Medium;
#METER:5;
#RADARVALUES:;
#BPMS:0.000=95.985;
#STOPS:0.000=0.000;
#DELAYS:;
#NOTES:
00000000
00000000
00000000
00000000
,
00000000
00000000
00000000
00000000
00000100
00000100
00010101
00000000
,
00100000
10010000
00100000
00000000
00100000
00100000
10110000
00000000
,
00000100
00010001
00000100
00000000
00000000
00000000
00000000
00000000
,
00000000
00000000
00100100
00000000
00100000
00000100
00110000
00000000
,
00000100
00000100
00010100
00000000
00000100
00100000
00010100
00000000
,
00100000
00100000
00110000
00000000
00000101
00000000
10100000
00000000
,
00000100
01000000
00000010
00000000
00000000
00000000
00110000
00000000
,
00100000
00000010
01000000
00000000
00010000
00000000
10000000
00000000
,
00100100
00100100
00100100
00000000
00010000
00000000
00000001
00000000
,
01000010
01000010
01000010
00000000
00010100
00000000
10100001
00000000
,
00000100
01000000
00000100
00000000
00000100
00000000
01000000
00000000
,
00100000
00000010
00100000
00000000
00000100
00000000
00000100
00000000
,
00100000
00010000
00000100
00010000
00100000
00000000
01000000
00000000
,
00000010
01000000
01000010
00000000
10100000
00000000
00010100
00000000
,
00100000
00000010
00000010
01000000
00000100
00000100
01000000
00000010
,
00100000
00000100
00010000
00000000
00000010
00100000
00100000
00100000
,
10010000
00100000
00000001
00000000
01000000
00000100
00000100
00000100
,
00010001
00000100
10000000
00000000
00100101
00000000
00000000
00000000
,
01111000
00000000
00000000
00000000
01000000
00100000
01000000
00000000
,
10000110
00000000
00000000
00000000
00100000
00000010
00110000
00000000
,
00000100
00000000
10000101
00000000
00000100
01000000
00010100
00000000
,
00100000
00000000
10100001
00000000
01000000
00000010
00010000
00000000
,
00000010
01000000
00000001
00000000
01000000
00000010
00110000
00000000
,
00000100
00000000
00010000
00000000
00100000
00100000
00000010
00000000
,
01010100
00000000
00000000
00000000
00110010
00000000
00011000
10000000
,
00000001
00000000
01000000
00000100
00100100
00000000
00100000
00000000
,
00010100
00000000
00110000
00000000
,
00100000
00100000
00100000
00000000
00000010
00000010
10000100
00000000
,
00000010
00000100
00000110
00000000
00000000
00000000
00000010
00000000
,
00000000
00000000
10100001
00000000
00000100
01000000
00000010
00000000
,
01000000
00000000
00000010
00000000
01000000
01000000
00100001
00000000
,
00100000
01000000
01100000
00000000
01000000
00000010
01000000
00000000
,
00000100
00000100
00010001
00000100
01000000
00000000
00000010
00000000
,
00100000
00100000
10010000
00100000
00010000
00000000
01000000
00000000
,
00000000
00000000
00000000
00000000
00110000
00000010
01000000
00000000
,
00000000
00000000
00000000
00000000
00000010
01000000
00000010
00000000
,
00100000
00100000
10010000
00100000
00000010
00000000
01000000
00000000
,
00000100
00000100
00010001
00000100
00010000
00000000
00000010
00000000
,
00000000
00000000
00000000
00000000
00010100
01000000
00000010
00000000
,
00000000
00011000
01100000
00000000
;
#NOTEDATA:;
#STEPSTYPE:ds3ddx-double;
#DESCRIPTION:Dual;
#DIFFICULTY:Medium;
#METER:5;
#RADARVALUES:;
#BPMS:0.000=95.985;
#STOPS:0.000=0.000;
#DELAYS:;
#NOTES:
0000000000000000
0000000000000000
0000000000000000
0000000000000000
,
0000000000000000
0000000000000000
0000000000000000
0000000000000000
0000000000100000
0000000000100000
0001000000110000
0000000000000000
,
0000010000000000
0001000000010000
0000010000000000
0000000000000000
0000010000000000
0000010000000000
0001010000010000
0000000000000000
,
0000000000100000
0001000000010000
0000000000100000
0000000000000000
0000000000000000
0000000000000000
0000000000000000
0000000000000000
,
0000000000000000
0000000000000000
0000000000000000
0000000000000000
0000000000100000
0000010000000000
0000000000110000
0000000000000000
,
0000010000000000
0000010000000000
0000010000000000
0000000000000000
0000010000000000
0000000000100000
0001010000000000
0000000000000000
,
0000000000100000
0000000000100000
0000000000100000
0000000000000000
0000000001011000
0000000000000000
0000000000110000
0000000000000000
,
0000000000100000
0000000001000000
0000000000000010
0000000000000000
0000000000000000
0000000000000000
0000000000110000
0000000000000000
,
0000000000100000
0000000000000010
0000000001000000
0000000000000000
0000000000010000
0000000000000000
0000000010000000
0000000000000000
,
0000000000100100
0000000000100100
0000000000100100
0000000000000000
0000000000010000
0000000000000000
0000000000000001
0000000000000000
,
0000000001000010
0000000001000010
0000000001000010
0000000000000000
0000000000010100
0000000000000000
0000000010100001
0000000000000000
,
0000000000000100
0000000001000000
0000000000000100
0000000000000000
0000000001000000
0000000000000000
0000000000100000
0000000000000000
,
0000010000000000
0000000001000000
0000010000000000
0000000000000000
0000000000100000
0000000000000000
0000000000100000
0000000000000000
,
0000010000000000
0001000000000000
0000000000100000
0000000000010000
0000010000000000
0000000000000000
0000001000000000
0000000000000000
,
0000000001000000
0000001000000000
0000001001000000
0000000000000000
0000000000110000
0000000000000000
0001010000000000
0000000000000000
,
0000000000100000
0000001000000000
0000001000000000
0000010000000000
0010000000000000
0010000000000000
0000001000000000
0100000000000000
,
0000010000000000
0010000000000000
0001000000000000
0000000000000000
0000001000000000
0010000000000000
0010000000000000
0010000000000000
,
1001000000000000
0010000000000000
0000000100000000
0000000000000000
0100000000000000
0000010000000000
0000010000000000
0000010000000000
,
0001000100000000
0000010000000000
1000000000000000
0000000000000000
0010010100000000
0000000000000000
0000000000000000
0000000000000000
,
0111100000000000
0000000000000000
0000000000000000
0000000000000000
0000001000000000
0000010000000000
0000000000100000
0000000000000000
,
0000000001100000
0000000000000000
0000000000000000
0000000000000000
0000000000100000
0000000000000010
0000000000110000
0000000000000000
,
0000000000000100
0000000000000000
0000000010000101
0000000000000000
0000000000000100
0000000001000000
0000000000010100
0000000000000000
,
0000000000100000
0000000000000000
0000000010100001
0000000000000000
0000000001000000
0000000000000010
0000000000010000
0000000000000000
,
0000000000000010
0000000001000000
0000000000000001
0000000000000000
0000000001000000
0000000000100000
0000010000000000
0000000000000000
,
0000000000100000
0000000000000000
0001000000010000
0000000000000000
0000010000000000
0000010000000000
0000000001000000
0000000000000000
,
0000001000100000
0000000000000000
0000000000000000
0000000000000000
0000010001000000
0000000000000000
0000000000011000
0001000000000000
,
0000000000010000
0000000000000000
0000010000000000
0000000000100000
0000010000100000
0000000000000000
0000010000000000
0000000000000000
,
0001010000000000
0000000000000000
0011000000000000
0000000000000000
,
0010000000000000
0010000000000000
0010000000000000
0000000000000000
0000001000000000
0000001000000000
1000010000000000
0000000000000000
,
0000001000000000
0000010000000000
0000011000000000
0000000000000000
0000000000000000
0000000000000000
0000000000100000
0000000000000000
,
0000000000000000
0000000000000000
0001010000010000
0000000000000000
0000000000100000
0000000001000000
0000000000000010
0000000000000000
,
0000000001000000
0000000000000000
0000000000000010
0000000000000000
0000000001000000
0000000001000000
0000000000100001
0000000000000000
,
0000000000100000
0000000001000000
0000000001100000
0000000000000000
0000000001000000
0000000000100000
0000010000000000
0000000000000000
,
0000000000100000
0000000000100000
0001000000010000
0000000000100000
0000001000000000
0000000000000000
0000000001000000
0000000000000000
,
0000010000000000
0000010000000000
0001000000010000
0000010000000000
0001000000000000
0000000000000000
0000001000000000
0000000000000000
,
0000000000000000
0000000000000000
0000000000000000
0000000000000000
0001010000000000
0000001000000000
0100000000000000
0000000000000000
,
0000000000000000
0000000000000000
0000000000000000
0000000000000000
0000001000000000
0000010000000000
0000000000100000
0000000000000000
,
0000010000000000
0000010000000000
0001000000010000
0000010000000000
0000000001000000
0000000000000000
0000001000000000
0000000000000000
,
0000000000100000
0000000000100000
0001000000010000
0000000000100000
0000000000010000
0000000000000000
0000000001000000
0000000000000000
,
0000000000000000
0000000000000000
0000000000000000
0000000000000000
0000000000110000
0000000001000000
0000000000000010
0000000000000000
,
0000000000000000
0000000000011000
0000000001100000
0000000000000000
;
