#TITLE:First Revolution;
#SUBTITLE:;
#ARTIST:나라 (Nara);
#TITLETRANSLIT:;
#SUBTITLETRANSLIT:;
#ARTISTTRANSLIT:;
#CREDIT:locuuraa [from 25.mp];
#BANNER:First Revolution.png;
#BACKGROUND:First Revolution.png;
#LYRICSPATH:;
#CDTITLE:../CDTitles/3DDX.png;
#MUSIC:First Revolution.mp3;
#OFFSET:-0.188;
#SAMPLESTART:27.000;
#SAMPLELENGTH:10.000;
#DISPLAYBPM:98.0;
#BGCHANGES:;
#NOTEDATA:;
#STEPSTYPE:ds3ddx-single;
#DESCRIPTION:Pretty;
#DIFFICULTY:Easy;
#METER:4;
#RADARVALUES:;
#BPMS:0.000=98.000;
#STOPS:0.000=0.000;
#DELAYS:;
#NOTES:
00000000
00000000
00000000
00000000
,
00000000
00000000
00000000
00000000
,
00100000
00000000
00000100
00000000
00000001
00010000
00000001
00000000
,
00000100
00000000
00100000
00000000
10000000
00010000
10000000
00000000
,
00100000
00000100
00000001
10000000
,
00000100
00000000
00100000
00000000
,
00100100
00000000
00000100
01000000
,
00000100
00000000
00000000
00000000
00000100
00000010
00000100
00000000
,
00100000
00000010
00100000
00000000
,
00100000
01000000
00100000
00000000
00000010
00000000
01000000
00000000
,
00000010
00000000
00000000
00000000
,
00010000
10000001
01000000
00000010
,
00010000
00000001
10000000
00000000
,
00000100
00100000
00100000
00000100
,
01000000
00100000
01000000
00000000
00000010
00000100
00000010
00000000
,
01000000
00000000
00000010
00000000
,
10000000
00000001
10000000
00000001
,
00100000
00000100
00110000
00000000
,
00000010
00000100
00000010
00000000
00100000
00000000
00000100
00000000
,
01000000
00100000
01000000
00000000
00000100
00000000
00100000
00000000
,
00000100
00000100
00000010
01000000
,
00000010
01000000
00000001
00000000
,
00100000
01000000
00000100
00000010
,
00100000
00000100
00100000
00000101
,
01000000
00000010
01000000
00000011
,
00000000
00000000
00000000
00000000
,
01000100
00100010
00000000
00000000
,
01000100
00100010
00000000
00000000
,
00000100
11000000
00100000
00000011
,
00000000
00000000
00000000
00000000
,
00100010
01000100
00000000
00000000
,
00100010
01000100
00000000
00000000
,
00010000
10000001
00010000
10000001
,
00100100
00100100
01000010
01000010
,
00000000
00000000
00000000
00000000
00000000
00000000
00000000
00000000
00000000
00000000
00000000
00000000
00000000
00000000
00000000
00110100
;
#NOTEDATA:;
#STEPSTYPE:ds3ddx-single;
#DESCRIPTION:Power;
#DIFFICULTY:Medium;
#METER:4;
#RADARVALUES:;
#BPMS:0.000=98.000;
#STOPS:0.000=0.000;
#DELAYS:;
#NOTES:
00000000
00000000
00000000
00000000
,
00000000
00000000
00000000
00000000
,
00000001
00010000
00010000
00000000
10000000
00010000
00010000
00000000
,
00000010
00000000
00110000
00000000
00010000
00100000
00010000
00100000
,
00000010
00000000
01000000
00000000
00000100
00010000
00100000
00010000
,
00000100
00000000
01000000
01000000
00010000
00010000
00000010
00000010
,
00010000
00010000
00010000
00000000
00000100
00000000
01000000
00000000
,
00010000
10000000
10000000
00000000
00010000
00100000
00010000
00100000
,
00000010
00000000
00000010
00000000
00010000
00000001
00000001
00000000
,
00000100
00000000
00100000
00010000
00000100
00010000
00100000
00010000
,
00000001
00000000
00000000
00000000
,
00100000
00000010
01010000
00000000
00000100
00000000
00000010
00000000
,
00000100
01000000
10000010
00000000
00100000
00000000
01000000
00000000
,
00000100
01000000
00010010
00000000
00000100
00000000
00000010
00000000
,
00100000
00000010
11000000
00000000
00100000
00000000
01000000
00000000
,
00000100
00100000
00000010
01000000
,
10000100
00100001
10000010
01000001
,
01000000
01000000
10000000
00000000
00010000
00000000
00000000
00000000
,
00110000
01000001
00010100
10000010
,
00100000
00110000
00000010
01000000
,
00010100
10000010
00110000
01000001
,
01000000
00000100
00010100
00000011
,
00100000
00000010
01010100
10100011
,
00000100
01000000
00110010
11000101
,
00100000
01000000
00000100
00000010
,
00000100
00100000
01000000
00000010
,
00010100
01000000
00000011
00000000
00110000
00000010
11000000
00000000
,
00000100
00010100
10100011
01010100
,
00110000
00000010
11000000
00000000
00010100
01000000
00000011
00000000
,
00100000
00110000
11000101
00110010
,
01000000
00000000
00100000
00000000
00000100
00000010
11000001
00000000
,
00100000
00000000
00000100
00000000
00000010
01000000
10000011
00000000
,
00100000
00000000
00000000
00000000
01000000
00000000
00000000
00000000
10000000
00010000
00000001
00000000
00010000
00000000
00000000
00000000
,
10100100
00100101
11000010
01000011
,
00000000
00000000
00000000
00000000
00000000
00000000
00000000
00000000
00000000
00000000
00000000
00000000
00000000
00000000
00000000
10110101
;
#NOTEDATA:;
#STEPSTYPE:ds3ddx-double;
#DESCRIPTION:Dual;
#DIFFICULTY:Medium;
#METER:4;
#RADARVALUES:;
#BPMS:0.000=98.000;
#STOPS:0.000=0.000;
#DELAYS:;
#NOTES:
0000000000000000
0000000000000000
0000000000000000
0000000000000000
,
0000000000000000
0000000000000000
0000000000000000
0000000000000000
,
0001010000000000
0010000000000000
0100000000000000
0000001000000000
,
0000000001000000
0000000000000010
0000000000000100
0000000000100000
,
0000001001000000
0010000000000000
0000001001000000
0000000000000100
,
0000001001000000
0000010000000000
0000000000100000
0000000001000000
,
0001101000000000
0100000000000000
0010000000000000
0000010000000000
,
1000000000000000
0001000000000000
1000000000000000
0000000000000000
0000010000000000
0001000000000000
0000010000000000
0001000000000000
,
0000001000000000
0000000000000000
0000000000000010
0000000000000000
,
0000000000100000
0000000000000000
0000000000000100
0000000000010000
0000000000100000
0000000000010000
0000000000000100
0000000000010000
,
0000000010000000
0000000000000000
0000000000000000
0000000000000000
,
0000000010100011
0000000001010100
0000000000000010
0000000001000000
,
0000000000100000
0000000001000000
0000110000000000
0000000000000000
0000000001000000
0000000000100000
0000101000000000
0000000000000000
,
0000010001000000
0000001000100000
0000010001000000
0000001000100000
,
0000010000000000
0000001000000000
0000000000101000
0000000000000000
0000001000000000
0000010000000000
0000000001001000
0000000000000000
,
0000001000100000
0000010001000000
0000001000100000
0000010001000000
,
0000001000000000
0100000000000000
0000001000000000
0100000000000000
,
0000010000000000
0000010000000000
0010000000000000
0010000000000000
0001010000000000
0000000000000000
0000000000000000
0000000000000000
,
1100010100000000
0011001000000000
0000010000000000
0000000000100000
,
0000010000100000
0000000000000000
0000001001000000
0000000000000000
0000001000100000
0000000000110000
0000001000000000
0000000000000000
,
0000010000100000
0000000000000000
0000001001000000
0000000000000000
0000010001000000
0001010000000000
0000000001000000
0000000000000000
,
0000010000000000
0000000000000000
0000000000100000
0001000000000000
0000000001000000
0000000000000000
0000000000000000
0000000000000000
,
0000000000000100
0000000000000010
0000000000010100
0000000000000000
0000000000000010
0000000000000100
0000000000011010
0000000000000000
,
0000000000100000
0000010000000000
0000001000000000
0010000000000000
,
0100000000000000
0010000000000000
0101100000000000
0000000000000000
0010000000000000
0100000000000000
0011000000000000
0000000000000000
,
0000010000000000
0000000000000000
0100000000000000
0000000000000000
0010001000000000
0001010000000000
0100000000000000
0000000000000000
,
0000010000000000
0000001000000000
0000000000100000
0000000001000000
,
0000000000000100
0000000000000000
0000000001000000
0000000000000000
0000000000100010
0000000000010100
0000000001000000
0000000000000000
,
0000000000000010
0000000000000010
0000000001000000
0000000001000000
,
0000001000000000
0000001000000000
0100000000000000
0100000000000000
,
0010000000000000
0000010000000000
0000000000100000
0000000000000100
,
0000000000000100
0000000000100000
0000010000000000
0010000000000000
,
0010010000000000
0000010000100000
0000000000100100
0000000000000111
,
0000000001000010
0000001001000000
0100001000000000
1110000000000000
,
0000000000000000
0000000000000000
0000000000000000
0000000000000000
0000000000000000
0000000000000000
0000000000000000
0000000000000000
0000000000000000
0000000000000000
0000000000000000
0000000110000000
0000000000000000
0000000000000000
0000000000000000
0000001001000000
;
