#TITLE:끝;
#SUBTITLE:End;
#ARTIST:샤크라 (Chakra);
#TITLETRANSLIT:;
#SUBTITLETRANSLIT:;
#ARTISTTRANSLIT:;
#CREDIT:locuuraa [from 20.mp];
#BANNER:End.png;
#BACKGROUND:End.png;
#LYRICSPATH:;
#CDTITLE:../CDTitles/3DDX.png;
#MUSIC:End.mp3;
#OFFSET:0.321;
#SAMPLESTART:40.500;
#SAMPLELENGTH:10.000;
#DISPLAYBPM:142.0;
#BGCHANGES:;
#NOTEDATA:;
#STEPSTYPE:ds3ddx-single;
#DESCRIPTION:Pretty;
#DIFFICULTY:Easy;
#METER:3;
#RADARVALUES:;
#BPMS:0.000=142.000;
#STOPS:0.000=0.000;
#DELAYS:;
#NOTES:
00000000
00000000
00000000
00000000
,
00000000
00000000
00000000
00000000
,
00000000
00000000
00000000
00000000
,
00000000
00000000
00000000
00000000
,
00000000
00000000
00000000
00000000
,
00000000
10000001
00000000
00000100
,
00000000
00100000
00000000
00000100
,
00000000
00100100
00000000
10100000
,
00000000
00100100
00000000
00000101
,
00000000
00100100
00000000
00100000
,
00000000
00100000
00000000
00000100
,
00000000
00000100
00000000
10000001
,
00000000
01000000
00100000
00000000
,
00000000
00000010
00000100
00000000
,
00000000
01000000
00000000
00000010
,
00000000
01000010
00000000
00000000
,
00000000
10100000
00000000
00000101
,
00000000
01000000
00100000
01000000
,
00000000
00000010
00000100
00000010
,
00000000
00000010
00000000
01000000
,
00000000
00000011
00000000
11000000
,
00000000
00000010
00000100
00100000
,
01000000
00000000
00100000
00100000
,
00100000
00000010
00000000
01000000
,
00000000
00000000
00000100
00000000
,
00100000
00010000
00000100
00010000
,
00100000
00010000
00000100
00000000
,
00100000
00000000
00000010
00000000
,
01000000
00000000
00000011
00000000
,
11000000
00000000
00000101
00000000
,
10100000
00000000
00000100
00000000
,
00000000
10100001
00000000
00000000
,
00000000
00000001
10000000
00000100
,
00000100
10000000
00000001
00100000
,
00100000
00000101
00000000
00000000
,
00000000
10100001
00000000
10000101
,
00000000
00100000
00000001
00100000
,
00000001
00100000
00000001
00100000
,
00000000
00100100
00000000
00000000
,
00000000
00000100
00100000
00100100
,
00000000
10100000
00000000
00000101
,
00000000
00000100
00100000
00100100
,
00000000
00000010
00000000
01000000
,
00000000
00000011
00000011
00000011
,
00000000
11000000
00000000
00000011
,
00000000
01000000
00000010
11000000
,
00000000
00100000
00000000
00000100
,
00000000
10100001
00000000
00000000
,
00000000
10000000
00000001
00100000
,
00100000
00000001
10000000
00000100
,
00000100
10100000
00000000
00000000
,
00000000
10000101
00000000
10100001
,
00000000
00000100
00000100
00000001
,
00000000
00100000
00100000
10000000
,
00000000
00000101
00000000
00000000
,
00000000
10000000
00000001
00100100
,
00000000
01000010
00000000
00000000
;
#NOTEDATA:;
#STEPSTYPE:ds3ddx-single;
#DESCRIPTION:Power;
#DIFFICULTY:Medium;
#METER:5;
#RADARVALUES:;
#BPMS:0.000=142.000,125.000=568.000,133.000=142.000,193.000=568.000,201.000=142.000;
#STOPS:0.000=0.000,125.000=0.840;
#DELAYS:;
#NOTES:
00000000
00000000
00000000
00000000
,
00000000
00000000
00000000
00000000
,
00000000
00000000
00000000
00000000
,
00000000
00000000
00000000
00000000
,
00000000
00000000
00000000
00000000
,
00000000
10000101
00000000
00000100
,
00000000
00100000
00000000
00000100
,
00000000
00100000
00000000
00000100
,
00000000
00000000
01000010
00000000
00000100
01000000
00000010
01000000
,
00000100
00000000
00100100
00000000
00000100
00100000
00000010
01000000
,
00000010
01000010
00000000
01000010
,
00000000
01000010
00000000
10000001
,
00000000
00000000
01000000
00000000
00100000
00100000
00000000
00000000
,
00000000
00000000
00100000
00000000
01000000
01000000
00000000
00000000
,
00000000
01000001
00000010
00110000
,
00000100
00100100
00000000
00000000
,
00000000
10100001
00100000
00100000
,
00010100
00100000
10000101
10000101
,
00000000
00100000
00000000
00100000
,
00100000
00000010
00000010
01000010
,
00000000
00000010
00000000
01000000
,
00000000
00000010
00000100
00100000
,
01000000
00000000
00100000
00100000
,
00100000
00000010
00000000
01000000
,
00000000
00000000
00000100
00000000
,
00100000
00010000
00000100
00010000
,
00100000
00010000
00000100
00100000
,
00000000
00100000
00000000
00000010
,
00000000
00000100
00100000
00000100
,
00100000
00000000
10100001
00000000
,
10100001
00000001
01000010
10000000
,
01000010
11000001
00000000
00000000
,
00000000
00000000
00000000
00000000
,
00000000
00000011
10100000
00000101
,
00000001
10100000
00000101
10100000
,
10000000
10000011
00000000
00000000
,
00000000
00000000
10010001
10000001
00000000
00000000
10010001
10000001
,
00000000
11000000
00000001
11000000
,
00000001
11000000
00000001
01000000
,
01000000
10000000
00000001
00000000
,
00000000
00010100
00100000
00100100
,
00000000
01000000
00000010
00100000
,
00100000
00010100
00100000
00100100
,
00000000
00100000
00100000
00000010
,
01000000
00000011
00000011
00000011
,
00000011
00100000
00100000
00000100
,
00000000
01000000
00000010
10000001
,
00000000
01000000
01000000
00000010
,
01000000
10010001
00000000
00000000
,
00000000
00000000
00000000
00000000
,
00000000
11000000
00000101
10100000
,
10000000
00000101
10100000
00000101
,
00000001
01001000
00000000
00000000
,
00000000
00000000
10010001
10000001
00000000
00000000
10010001
10000001
,
00000000
10100000
00000001
10100000
,
00000001
10100000
00000001
00100000
,
00100000
10000000
00000001
00000000
,
00000000
00010100
00100000
00100100
,
00000000
11000011
00000000
00000000
;
#NOTEDATA:;
#STEPSTYPE:ds3ddx-double;
#DESCRIPTION:Dual;
#DIFFICULTY:Medium;
#METER:5;
#RADARVALUES:;
#BPMS:0.000=142.000,125.000=568.000,133.000=142.000,193.000=568.000,201.000=142.000;
#STOPS:0.000=0.000,125.000=0.840;
#DELAYS:;
#NOTES:
0000000000000000
0000000000000000
0000000000000000
0000000000000000
,
0000000000000000
0000000000000000
0000000000000000
0000000000000000
,
0000000000000000
0000000000000000
0000000000000000
0000000000000000
,
0000000000000000
0000000000000000
0000000000000000
0000000000000000
,
0000000000000000
0000000000000000
0000000000000000
0000000000000000
,
0000000000000000
0000000010000101
0000000000000000
0000000000000100
,
0000000000000000
0000000001000000
0000000000000000
0000000000100000
,
0000000000000000
0000010000000000
0000000000000000
0000000000100000
,
0000000000000000
0000000000000000
0000010000100000
0000000000000000
0000000001000000
0000001000000000
0000000000100000
0000001000000000
,
0000000001000000
0000000000000000
0000001001000000
0000000000000000
0000000001000000
0000001000000000
0000010000000000
0100000000000000
,
0000001000000000
0100001000000000
0000000000000000
0100001000000000
,
0000000000000000
0100001000000000
0000000000000000
1000000100000000
,
0000000000000000
0000000000000000
0000001000000000
0000000000000000
0000010000000000
0000010000000000
0000000000000000
0000000000000000
,
0000000000000000
0000000000000000
0100000000000000
0000000000000000
0010000000000000
0010000000000000
0000000000000000
0000000000000000
,
0000000000000000
0000001100000000
0100000000000000
0001010000000000
,
0010000000000000
0010010000000000
0000000000000000
0000000000000000
,
0000000000000000
0000000001001000
0000000000100000
0000000000100000
,
0000000000010100
0000000000100000
0000000010000101
0000000010000101
,
0000000000000000
0000000001000000
0000000000000000
0000000000100000
,
0000000000100000
0000010000000000
0000010000000000
0000010000100000
,
0000000000000000
0000000001000000
0000000000000000
0000001000000000
,
0000000000000000
0000000001000000
0000000000100000
0000010000000000
,
0000001000000000
0000000000000000
0000010000000000
0000010000000000
,
0000010000000000
0000000001000000
0000000001000000
0000001001000000
,
0000000000000000
0000000000000000
0000000000100000
0000000000000000
,
0000010000000000
0000000000010000
0000000000100000
0001000000000000
,
0000010000000000
0000000000010000
0000000000100000
0000010000000000
,
0000000000000000
0000010000000000
0000000000000000
0000000001000000
,
0000000000000000
0000000000100000
0000010000000000
0000000000100000
,
0000010000000000
0000000000000000
0000010000000000
0000000000000000
,
0000010000000000
0000000000010000
0000001000100000
0001100000000000
,
0000001000100000
0001100000010000
0000000000000000
0000000000000000
,
0000000000000000
0000000000000000
0000000000000000
0000000000000000
,
0000000000000000
0000000000000011
0000000010100000
0000000000000101
,
0000000000000001
0000000011000000
0000000000110000
0001010000000000
,
0001010000000000
0000101000000000
0000000000000000
0000000000000000
,
0000000000000000
0000000000000000
0001000000010000
0001000000010000
0000000000000000
0000000000000000
0001000000010000
0001000000010000
,
0000000000000000
0001010000000000
0000000000011000
0001010000000000
,
0000000000011000
0001010000000000
0000000000011000
0000010000000000
,
0000010000000000
0000000000000000
0001000000000000
0000000000010000
0000000000000000
0000000000000000
0000000000000000
0000000000000000
,
0000000000000000
0001010000000000
0010000000000000
0010010000000000
,
0000000000000000
0000001000000000
0000000001000000
0000000000100000
,
0000000000000100
0000000000010100
0000000000100000
0000000000100100
,
0000000000000000
0000000000000100
0000000000000100
0000000001000000
,
0000000001000000
0000000000000011
0000000000000011
0000000000000011
,
0000000000000011
0000000001000000
0000000001000000
0000000000100000
,
0000000000100000
0000001000000000
0000000000100000
0001100000010000
,
0000000000000000
0000000000100000
0000010000000000
0000010000000000
,
0000000000100000
1001000110010000
0000000000000000
0000000000000000
,
0000000000000000
0000000000000000
0000000000000000
0000000000000000
,
0000000000000000
1100000000000000
0000010100000000
1010000000000000
,
1000000000000000
0000001100000000
0001010000000000
0000000000110000
,
0000000000010000
0000000001001000
0000000000000000
0000000000000000
,
0000000000000000
0000000000000000
0001000000010000
0001000000010000
0000000000000000
0000000000000000
0001000000010000
0001000000010000
,
0000000000000000
0001010000000000
0000000000011000
0001010000000000
,
0000000000011000
0001010000000000
0000000000011000
0000010000000000
,
0000010000000000
0000000000000000
0001000000000000
0000000000010000
0000000000000000
0000000000000000
0000000000000000
0000000000000000
,
0000000000000000
1100000000000000
0010000000000000
0000011000000000
,
0000000000000000
0000000001100000
0000000000000000
0000000000000000
;
