#TITLE:不想长大;
#SUBTITLE:Don't Want To Grow Up;
#ARTIST:S.H.E.;
#TITLETRANSLIT:bùxiǎng zhǎng dà;
#SUBTITLETRANSLIT:;
#ARTISTTRANSLIT:;
#CREDIT:locuuraa [from 05.mp];
#BANNER:Don't Want To Grow Up.png;
#BACKGROUND:Don't Want To Grow Up.png;
#LYRICSPATH:;
#CDTITLE:../CDTitles/3DDX.png;
#MUSIC:Don't Want To Grow Up.mp3;
#OFFSET:-0.299;
#SAMPLESTART:43.000;
#SAMPLELENGTH:10.000;
#DISPLAYBPM:100.0;
#BGCHANGES:;
#NOTEDATA:;
#STEPSTYPE:ds3ddx-single;
#DESCRIPTION:Pretty;
#DIFFICULTY:Easy;
#METER:4;
#RADARVALUES:;
#BPMS:0.000=100.300;
#STOPS:0.000=0.000;
#DELAYS:;
#NOTES:
00000000
00000000
00000000
00000000
,
00000000
00000000
00000000
00000000
,
00100000
00000000
00000100
00000000
00100000
00000100
00100000
00000000
,
00000011
00000000
11000000
00000000
,
00000010
00000000
01000000
00000000
00000010
01000000
00000010
00000000
,
10100000
00000000
00000101
00000000
,
00000010
00000000
01000000
00000000
,
00010100
00110000
00010100
00000000
,
00100000
00000000
00000100
00000000
,
00110000
00010100
00110000
00000000
,
10000101
00000000
10100001
00000000
,
00000100
00000100
00100000
00100000
,
00100000
00000000
00000010
01000000
,
00000010
00000000
00000000
00000000
,
00000010
11000000
00000011
00000000
,
00000100
00000100
00000100
00000000
,
00100000
00000101
10100000
00000000
,
00000010
00000010
00000010
00000000
,
00100000
01000000
00100000
00010000
,
00000100
00000010
00000100
00010000
,
00100000
10000000
00100000
10000000
,
00000100
00000001
00000100
00000001
,
01000000
00100000
01000000
00000000
00000010
01000000
00000010
00000000
,
00000000
11000000
00000000
00000011
,
01000000
00100000
01000000
00000000
00000010
01000000
00000010
00000000
,
00110000
00000000
00010100
00000000
,
00000100
00100000
00000100
00100000
,
00000101
00000101
10100000
10100000
,
00000100
00000000
00000100
00000100
,
00110000
00000000
10100000
00000000
,
00000100
00000000
00100000
00000000
00000100
00100000
00000100
00000000
,
01000000
00000010
11000000
00000011
,
01000000
00000000
00000010
00000000
,
01000000
00000010
01000000
00000000
00000100
00000000
00000100
00000000
,
01000000
00000000
00000010
00000000
,
01000000
00000000
00000000
00000000
00000100
01000000
00000010
00000000
,
00100000
10100000
00000100
00000101
,
01000000
01000010
00000010
01000010
,
00000000
01000000
00100000
01100000
;
#NOTEDATA:;
#STEPSTYPE:ds3ddx-single;
#DESCRIPTION:Power;
#DIFFICULTY:Medium;
#METER:4;
#RADARVALUES:;
#BPMS:0.000=100.300;
#STOPS:0.000=0.000;
#DELAYS:;
#NOTES:
00000000
00000000
00000000
00000000
,
00000000
00000000
00000000
00000000
,
00000100
00000100
01000000
01000000
,
00000011
01000000
00000011
01000000
,
00100000
00100000
00000010
00000010
,
11000001
11000000
11000000
11000000
,
00000011
00000010
11000000
01000000
,
00000011
11000000
00000011
00000011
,
10100000
00100000
00000101
00000100
,
10100000
00000101
10100000
00100100
,
10000101
00000100
10100001
00100000
,
10000101
00000100
10100001
00100000
,
00010000
00000100
00100000
00000100
,
00000000
01000000
00000000
00000010
,
00110011
00110001
10100001
10110000
,
00100000
00000000
00000100
00000000
,
11010100
10010100
10000101
00010101
,
00000100
00000000
00100000
00000000
,
00110000
01011000
00110000
00000100
,
00010100
00011010
00010100
00100000
,
00010000
00000001
00000001
00011000
,
00011000
10000000
00010000
00010000
,
00011000
10000000
00010000
00000001
,
01000000
01000001
01000000
01000001
,
00011000
00000001
00010000
10000000
,
00000000
00000001
00000000
00000001
,
00000100
01000000
00000100
01000000
,
00000100
00000100
01000000
01000000
,
00010100
00000000
00000010
00000010
,
00010100
00000101
00010000
00000000
,
00000101
00000010
10100000
01000000
00100000
00100000
00100000
00000000
,
00000010
01000000
00000010
00000000
01000000
00000010
01010000
00000000
,
00000100
00000010
00100000
01000000
01000000
01000000
01000000
00000000
,
00000100
00000010
00100000
01000000
00010000
00010000
00010000
00000000
,
01100000
01101000
00000110
00001110
,
00000110
00000000
11000101
00000000
00000010
00000010
00000010
00000000
,
00000110
00001110
01100000
01101000
,
01100000
00000000
10100011
00000000
01000000
01000000
01000000
00000000
,
00000000
01000000
00100000
00000110
;
#NOTEDATA:;
#STEPSTYPE:ds3ddx-double;
#DESCRIPTION:Dual;
#DIFFICULTY:Medium;
#METER:4;
#RADARVALUES:;
#BPMS:0.000=100.300;
#STOPS:0.000=0.000;
#DELAYS:;
#NOTES:
0000000000000000
0000000000000000
0000000000000000
0000000000000000
,
0000000000000000
0000000000000000
0000000000000000
0000000000000000
,
0000000000000100
0000000000000100
0000000001000000
0000000001000000
,
0000000000000011
0000000001000000
0000000000000011
0000000001000000
,
0000000000100000
0000000000100000
0000001000000000
0000001000000000
,
0000110000000000
0001101000000000
0001101000000000
0001101000000000
,
0001010000000000
0000010000000000
1010000000000000
0010000000000000
,
0000010100000000
1010000000000000
0000010100000000
0000001000000000
,
0001101000000000
0000001000000000
0001010000000000
0000010000000000
,
0001101000000000
0000000000110000
0000000001011000
0000000000100100
,
0000000010000101
0000000000000100
0000000010100001
0000000000100000
,
0000000010000101
0000000000000100
0000000010100001
0000000000100000
,
0000000110000000
0000000000000000
0000000000000000
0000000000000000
0000010000000000
0000000000100000
0000010000000000
0000000000000000
,
0000000000000000
0000001000000000
0000000000000000
0100000000000000
,
0011001100000000
0011000100000000
1010000100000000
1011000000000000
,
0000001000000000
0000000000000000
0000000000100000
0000000000000000
,
0000000011010100
0000000010010100
0000000010000101
0000000000010101
,
0000000000000100
0000000000000000
0000000000000100
0000000001000000
,
0000000000110000
0000000001011000
0000000000110000
0000010000000000
,
0001010000000000
0001101000000000
0001010000000000
0010000000000000
,
0001010000000000
0000001100000000
0000001100000000
0001100000000000
,
0001100000000000
0000000000000000
1010000000000000
0000000000000000
0001000000000000
0001000000000000
1000000100000000
0000000000000000
,
0001100000000000
1000000000000000
0001000000000000
0000000110000000
,
0000000000000000
0000000000100000
0000000000000000
0000000000000100
,
0000000000011000
0000000000000001
0000000000010000
0000000110000000
,
0000000000000000
0000000000000000
0000010000000000
0000000000000000
0011000000000000
0001010000000000
1010000100000000
0000000000000000
,
0010000000000000
0000001000000000
0000010000000000
0000000001000000
,
0000000000100000
0000000000100000
0000000000000010
0000000000000010
,
0000000000010100
0000000000000000
0000000000000010
0000000000000010
,
0000000000010100
0000000000000101
0000000000010000
0000000000000000
,
0000000000000101
0000000000000010
0000000010100000
0000000001000000
0000000000100000
0000000000100000
0000000000100000
0000000000000000
,
0000000000000010
0000000001000000
0000000000000010
0000000000000000
0000000001000000
0000000000100000
0000010000010000
0000000000000000
,
0000000000100000
0000000001000000
0000010000000000
0000001000000000
0000001000000000
0000001000000000
0000001000000000
0000000000000000
,
0000010000000000
0000001000000000
0010000000000000
0100000000000000
0001000000000000
0001000000000000
0001000000000000
0000000000000000
,
0110000000000000
0110100000000000
0000011000000000
0000111000000000
,
0000011000000000
0000000000000000
0000000001000000
0000000000000000
0000000001000000
0000000001000000
0000000001000000
0000000000000000
,
0000000001100000
0000000001101000
0000000000000110
0000000000001110
,
0000000000000110
0000000000000000
0000000011000101
0000000000000000
0000000001000000
0000000001000000
0000000001000000
0000000000000000
,
0000000000000000
0000000000100000
0000001000000000
0000001000100000
;
