#TITLE:독도는 우리땅;
#SUBTITLE:Dokdo is Korea Land!;
#ARTIST:디제이덕 (DJ DOC);
#TITLETRANSLIT:;
#SUBTITLETRANSLIT:;
#ARTISTTRANSLIT:;
#CREDIT:locuuraa [from 66.mp];
#BANNER:Dokdo is Korea Land.png;
#BACKGROUND:Dokdo is Korea Land.png;
#LYRICSPATH:;
#CDTITLE:../CDTitles/3DDX.png;
#MUSIC:Dokdo is Korea Land.mp3;
#OFFSET:-0.164;
#SAMPLESTART:14.000;
#SAMPLELENGTH:10.000;
#DISPLAYBPM:136.0;
#BGCHANGES:;
#NOTEDATA:;
#STEPSTYPE:ds3ddx-single;
#DESCRIPTION:Pretty;
#DIFFICULTY:Easy;
#METER:5;
#RADARVALUES:;
#BPMS:0.000=135.923;
#STOPS:0.000=0.000;
#DELAYS:;
#NOTES:
00000000
00000000
00000000
00000000
,
00000000
00000000
00000000
00000000
,
00000000
00000000
00000000
00000000
,
00000000
00000000
00000000
00000000
,
00110000
00000000
00000101
00000000
,
00000100
00100000
01000000
00000010
,
11000000
00000000
00000011
00000000
,
00100000
00000100
00000010
01000000
,
00010100
00000000
00010100
00000000
,
00000010
00000000
00000100
00000000
00000010
00000100
00000010
00000000
,
00000110
00000000
01100000
00000000
,
00100100
00000000
11000011
00000000
,
00010100
00000000
10100000
00000000
,
00100000
00000100
00000010
01000000
,
00000011
00000000
11000000
00000000
,
00000100
00100000
01000000
00000010
,
00110000
00000000
00110000
00000000
,
01000000
00000000
00100000
00000000
01000000
00100000
01000000
00000000
,
01100000
00000000
00000110
00000000
,
01000010
00000000
00110100
00000000
,
01000000
00000000
00000010
00000000
01000000
01000000
01000000
00000000
,
00000010
00000000
01000000
00000000
00000010
00000010
00000010
00000000
,
00100000
00000100
00000010
01000000
,
01000000
00000000
00010100
00010100
,
00000101
00000000
10100000
00000000
,
00000100
00100000
00000010
01000000
,
00000010
00000010
01000000
01000000
,
01000010
00000000
00110100
00000000
,
01000100
00000000
00100010
00000000
,
01000000
00000010
00010101
00000000
,
00100010
00000000
01000100
00000000
,
00000010
01000000
10110000
00000000
,
00000010
00000010
00000100
00000100
,
00000010
00000100
00000010
00000000
00000100
00000010
00000100
00000000
,
01100000
00000000
00000110
00000000
,
01000010
00010100
10000101
00000000
,
00100010
00000000
01000100
00000000
,
00000010
01000000
10110000
00000000
,
01000100
00000000
00100010
00000000
,
01000000
00000010
00010101
00000000
,
01000000
01000000
00100000
00100000
,
01000000
00100000
01000000
00000000
00100000
01000000
00100000
00000000
,
00000110
00000000
01100000
00000000
,
01000010
00110000
10100001
00000000
,
00000100
00100000
01000000
00000010
,
01000010
00010100
10000101
00000000
,
00100000
00000100
00000010
01000000
,
01000010
00110000
10100001
00000000
;
#NOTEDATA:;
#STEPSTYPE:ds3ddx-single;
#DESCRIPTION:Power;
#DIFFICULTY:Medium;
#METER:5;
#RADARVALUES:;
#BPMS:0.000=135.923;
#STOPS:0.000=0.000;
#DELAYS:;
#NOTES:
00000000
00000000
00000000
00000000
,
00000000
00000000
00000000
00000000
,
00000000
00000000
00000000
00000000
,
00000000
00000000
00000000
00000000
,
00100000
00000100
00000001
00011000
,
01000000
00000000
00000010
00000000
01000000
00000010
01000000
00000000
,
00000100
00000010
00100000
01000000
,
00000010
01000000
00000100
00100000
00000100
00000000
00000000
00000000
,
00110000
01000000
00010100
00000010
,
00000100
00000010
00000100
00000000
00100000
01000000
00100000
00000000
,
00000100
00100000
00000010
01000000
,
01000010
00000100
01000010
00000000
,
00110000
00100000
00010100
00000100
,
00100000
00000100
00100000
00000000
00000010
01000000
00000010
00000000
,
00100000
00100010
00000100
01000100
,
00100000
00000100
01000000
00000010
01000000
00000000
00000000
00000000
,
00100000
00000000
00000010
00000000
01000000
00100000
01000000
00000000
,
00000100
00000000
01000000
00000000
00000010
00000100
00000010
00000000
,
01000000
00000010
00100000
00000100
,
00100100
01000000
00100100
00000000
,
00000010
00000000
00100000
00000000
00010000
10000000
00010000
00000000
,
01000000
00000000
00000100
00000000
00000001
00010000
00000001
00000000
,
00100000
00000000
00000100
00000000
,
00110000
00000000
00000000
00000000
00000100
00000010
01000000
00000000
,
00010100
00000000
00000000
00000000
00100000
01000000
00000010
00000000
,
00110000
00000000
00100000
00000100
,
00100000
00000100
00100000
00000000
00000010
01000000
00000010
00000000
,
00100010
00100010
01000100
10000001
,
00100000
00000100
00000001
00011000
,
01000000
00000000
00000010
00000000
01000000
00000010
01000000
00000000
,
00000100
00000010
00100000
01000000
,
00000010
01000000
00000100
00100000
00000100
00000000
00000000
00000000
,
00110000
01000000
00010100
00000010
,
00000100
00000010
00000100
00000000
00100000
01000000
00100000
00000000
,
00000100
00100000
00000010
01000000
,
10000001
00100000
01000010
00000000
,
00110000
00100000
00010100
00000100
,
00100000
00000100
00100000
00000000
00000010
01000000
00000010
00000000
,
00100000
00100010
00000100
01000100
,
00100000
00000100
01000000
00000010
00100000
00000100
00100000
00000000
,
00000100
00000000
01000000
00000000
00000010
00000100
00000010
00000000
,
00100000
00000000
00000010
00000000
01000000
00100000
01000000
00000000
,
00000010
01000000
00000100
00100000
,
00100100
00000010
00100100
00000000
,
00000100
00100000
00000010
01000000
,
01000010
00000100
01000010
00000000
,
00100000
00000000
00000100
00000000
00100000
00000100
00100000
00000000
,
00100100
01000100
00100010
00000000
;
#NOTEDATA:;
#STEPSTYPE:ds3ddx-double;
#DESCRIPTION:Dual;
#DIFFICULTY:Medium;
#METER:5;
#RADARVALUES:;
#BPMS:0.000=135.923;
#STOPS:0.000=0.000;
#DELAYS:;
#NOTES:
0000000000000000
0000000000000000
0000000000000000
0000000000000000
,
0000000000000000
0000000000000000
0000000000000000
0000000000000000
,
0000000000000000
0000000000000000
0000000000000000
0000000000000000
,
0000000000000000
0000000000000000
0000000000000000
0000000000000000
,
0000000000100000
0000000000000100
0000000000000001
0000000000011000
,
0000000001000000
0000000000000000
0000000000000010
0000000000000000
0000000001000000
0000000000000010
0000000001000000
0000000000000000
,
0000000000000100
0000000000000010
0000000000100000
0000000001000000
,
0000000000000010
0000000001000000
0000000000100000
0000010000000000
0000000000100000
0000000000000000
0000000000000000
0000000000000000
,
0001010000000000
0000001000000000
0000000000110000
0000000001000000
,
0000000000100000
0000000001000000
0000000000100000
0000000000000000
0000010000000000
0000001000000000
0000010000000000
0000000000000000
,
0010000000000000
0000010000000000
0100000000000000
0000001000000000
,
0100001000000000
0000010000000000
0100001000000000
0000000000000000
,
0011000000000000
0010000000000000
0001010000000000
0000010000000000
,
0010000000000000
0000010000000000
0010000000000000
0000000000000000
0000001000000000
0000010000000000
0000001000000000
0000000000000000
,
0000010000000000
0000010001000000
0000000000100000
0000001000100000
,
0000010000000000
0000000000100000
0000000001000000
0000000000000010
0000000001000000
0000000000000000
0000000000000000
0000000000000000
,
0000000000100000
0000000000000000
0000000000000010
0000000000000000
0000000001000000
0000000000100000
0000000001000000
0000000000000000
,
0000000000000100
0000000000000000
0000000001000000
0000000000000000
0000000000000010
0000000000000100
0000000000000010
0000000000000000
,
0000000001000000
0000000000000010
0000000000100000
0000000000000100
,
0000000000100100
0000000001000000
0000000000100100
0000000000000000
,
0000000000000010
0000000000000000
0000000000100000
0000000000000000
0000000000010000
0000000010000000
0000000000010000
0000000000000000
,
0000000001000000
0000000000000000
0000000000000100
0000000000000000
0000000000000001
0000000000010000
0000000000000001
0000000000000000
,
0000000000100000
0000000000000000
0000000001000000
0000000000000000
,
0001010000000000
0000000000000000
0000000000000000
0000000000000000
0000000000100000
0000001000000000
0000000001000000
0000000000000000
,
0000000000110000
0000000000000000
0000000000000000
0000000000000000
0000010000000000
0000000001000000
0000001000000000
0000000000000000
,
0001010000000000
0000000000000000
0000000000100000
0000010000000000
,
0000000000100000
0000010000000000
0000000000100000
0000000000000000
0000001000000000
0000010000000000
0000001000000000
0000000000000000
,
0100010000000000
0100010000000000
0010001000000000
1000000100000000
,
0010000000000000
0000010000000000
0000000100000000
0001100000000000
,
0000001000000000
0000000000000000
0100000000000000
0000000000000000
0000001000000000
0100000000000000
0000001000000000
0000000000000000
,
0010000000000000
0100000000000000
0000010000000000
0000001000000000
,
0100000000000000
0000001000000000
0000010000000000
0000000000100000
0000010000000000
0000000000000000
0000000000000000
0000000000000000
,
0000000000110000
0000000001000000
0001010000000000
0000001000000000
,
0000010000000000
0000001000000000
0000010000000000
0000000000000000
0000000000100000
0000000001000000
0000000000100000
0000000000000000
,
0000000000000100
0000000000100000
0000000000000010
0000000001000000
,
0000000001000010
0000000000100000
0000000001000010
0000000000000000
,
0000000000010100
0000000000000100
0000000000110000
0000000000100000
,
0000000000000100
0000000000100000
0000000000000100
0000000000000000
0000000001000000
0000000000100000
0000000001000000
0000000000000000
,
0000000000100000
0000001000100000
0000010000000000
0000010001000000
,
0000000000100000
0000010000000000
0000001000000000
0100000000000000
0000010000000000
0010000000000000
0000010000000000
0000000000000000
,
0010000000000000
0000000000000000
0000001000000000
0000000000000000
0100000000000000
0010000000000000
0100000000000000
0000000000000000
,
0000010000000000
0000000000000000
0100000000000000
0000000000000000
0000001000000000
0000010000000000
0000001000000000
0000000000000000
,
0100000000000000
0000001000000000
0010000000000000
0000010000000000
,
0010010000000000
0100000000000000
0010010000000000
0000000000000000
,
0000001000000000
0000010000000000
0000000000100000
0000010000000000
,
0000010000100000
0000000001000000
0000001001000000
0000000000000000
,
0000000000100000
0000000000000000
0000000000000100
0000000000000000
0000000000100000
0000000000000100
0000000000100000
0000000000000000
,
0000000000100100
0000000001000100
0000000000100010
0000000000000000
;
