#TITLE:Diamond;
#SUBTITLE:;
#ARTIST:DANA;
#TITLETRANSLIT:;
#SUBTITLETRANSLIT:;
#ARTISTTRANSLIT:;
#CREDIT:locuuraa [from 13.mp];
#BANNER:Diamond.png;
#BACKGROUND:Diamond.png;
#LYRICSPATH:;
#CDTITLE:../CDTitles/3DDX.png;
#MUSIC:Diamond.mp3;
#OFFSET:-0.029;
#SAMPLESTART:6.000;
#SAMPLELENGTH:10.000;
#DISPLAYBPM:106.0;
#BGCHANGES:;
#NOTEDATA:;
#STEPSTYPE:ds3ddx-single;
#DESCRIPTION:Pretty;
#DIFFICULTY:Easy;
#METER:2;
#RADARVALUES:;
#BPMS:0.000=105.997;
#STOPS:0.000=0.000;
#DELAYS:;
#NOTES:
00000000
00000000
00000000
00000000
,
00000000
00000000
00000000
00000000
,
00000000
00000000
00000000
00000000
,
00000000
00000100
00000010
11000000
,
00000000
00000100
00000010
00100001
,
00000000
00000010
00000010
01000000
,
01000000
00000110
00000000
00000110
,
00000000
00100000
01000000
00000011
,
00000000
00100000
01000000
10000100
,
00000000
01000000
01000000
00000010
,
00000010
01100000
00000000
01100000
,
00000000
10000100
00000000
00100001
,
00000000
00000000
00000100
00000000
00000010
00000100
00000010
00000000
,
00000100
00100001
00000000
10000100
,
00000000
00000000
00100000
00000000
01000000
00100000
01000000
00000000
,
00100000
00000100
00100000
01000000
,
00000010
10100000
00000000
00000101
,
00000000
00100000
00000100
00000100
,
00100000
00100100
00000000
00000010
,
00000100
00000000
00000010
00000100
00000010
00000000
01000000
00000010
,
01000000
00000000
00100000
01000000
00100000
00000000
01000000
00000000
,
00100000
00000000
01000000
00100000
01000000
00000000
00000010
01000000
,
00000010
00000000
00000100
00000010
00000100
00000000
00000010
00000000
,
00000100
10000010
00000000
01000001
,
00000000
00000100
00000010
00100000
,
01000000
00000010
01000000
00000011
,
00000000
11000000
00000000
00000100
,
00000100
00100000
01000000
00000100
,
00000010
01000000
00000010
11000000
,
00000000
00000011
00000000
00100000
,
00100000
00000100
00000010
01000000
,
00000000
00000100
00000010
11000000
,
00000000
00000100
00000010
00100001
,
00000000
00000100
00100000
01000000
,
00000010
01000010
00000000
00100100
,
00000000
00100000
01000000
00000011
,
00000000
00100000
01000000
10000100
,
00000000
00100000
00000100
00000010
,
01000000
01000010
00000000
00100100
,
00000000
01000000
00000010
01000000
,
01000000
00000100
00000000
00100000
,
00000000
01100000
00000000
00000000
;
#NOTEDATA:;
#STEPSTYPE:ds3ddx-single;
#DESCRIPTION:Power;
#DIFFICULTY:Medium;
#METER:3;
#RADARVALUES:;
#BPMS:0.000=105.997;
#STOPS:0.000=0.000;
#DELAYS:;
#NOTES:
00000000
00000000
00000000
00000000
,
00000000
00000000
00000000
00000000
,
00000000
00000000
00000000
00000000
,
00000000
00000000
00000100
01000000
00000010
00000000
01000000
01000000
,
01000100
00000000
00000100
01000000
00000010
00000000
00100000
00000000
,
10100001
00000010
00000010
01000000
,
01000000
00000000
00000010
00000100
00000010
00000000
00000010
01000000
,
00000010
00000000
00100000
00000010
01000000
00000000
00000010
00000010
,
00100010
00000000
00100000
00000010
01000000
00000000
00000100
00000000
,
10000101
01000000
01000000
00000010
,
00000010
00000000
01000000
00100000
01000000
00000000
01000000
00000010
,
01000000
00000010
00110000
00000000
00000000
00000000
00000100
00000000
,
00000000
00000000
00100000
01000000
00100000
00000100
00000010
00000000
,
01100000
00000000
00000001
00000000
10000000
00000000
00000100
00100000
,
00000100
00100000
01000000
00000100
,
00000010
00000000
01000000
00000000
00000010
00000000
01000000
00000010
,
01000000
10000101
00000000
01000000
,
00000000
00000000
00000100
00000000
00000100
00000000
00100000
00000010
,
01000000
00000000
00000010
00000000
00000000
00000000
01000000
00100000
,
00000100
00000010
01000000
00000000
00000100
00000000
00010010
01000000
,
00000100
00000000
01000000
01000000
00100010
00000000
00000000
00000010
,
01000000
00000010
01000000
00000000
00100000
00000000
01010000
00000010
,
00100000
00000000
00000010
00000001
01000000
10000000
00000100
00010000
,
00000100
00010000
00100000
00000000
00000000
00000000
00000001
10000000
,
00000001
00100000
01000000
00000100
,
00000010
01000000
00000010
01000000
,
01000000
00000000
00000100
00000000
00100000
00000000
00000100
00100000
,
00000100
00100000
01001000
00000100
,
00001010
00000000
00000100
00000010
00000100
00000000
00100000
01000000
,
00100000
00000100
00000010
00100000
,
01000000
00000000
00000100
00000100
00100000
00000010
01000000
00000000
,
00000000
00000000
00000100
01000000
00000010
00000000
01000000
01000000
,
01000100
00000000
00000100
01000000
00000010
00000000
00100000
00000000
,
10100001
00000100
00000010
00100000
,
01000000
00000000
00000010
00000100
00000010
00000000
00000010
01000000
,
00000010
00000000
00100000
00000010
01000000
00000000
00000010
00000010
,
00100010
00000000
00100000
00000010
01000000
00000000
00000100
00000000
,
10000101
00100000
01000000
00000100
,
00000010
00000000
01000000
00100000
01000000
00000000
01000000
00000010
,
01000000
00000010
00110000
00000000
00000000
00000000
00000100
00100000
,
00000100
00000000
00100100
00000000
00000000
00000000
00100000
00000010
,
01000000
00000100
00100010
00000000
00000000
00000000
00000000
00000000
;
#NOTEDATA:;
#STEPSTYPE:ds3ddx-double;
#DESCRIPTION:Dual;
#DIFFICULTY:Medium;
#METER:3;
#RADARVALUES:;
#BPMS:0.000=105.997;
#STOPS:0.000=0.000;
#DELAYS:;
#NOTES:
0000000000000000
0000000000000000
0000000000000000
0000000000000000
,
0000000000000000
0000000000000000
0000000000000000
0000000000000000
,
0000000000000000
0000000000000000
0000000000000000
0000000000000000
,
0000000000000000
0000000000000000
0000000000000100
0000000001000000
0000000000000010
0000000000000000
0000000001000000
0000000001000000
,
0000000001000100
0000000000000000
0000000000000100
0000000001000000
0000000000000010
0000000000000000
0000000000100000
0000000000000000
,
0000000010100001
0000000000000010
0000000000000010
0000000001000000
,
0000000001000000
0000000000000000
0000001000000000
0000000001000000
0000001000000000
0000000000000000
0100000000000000
0000001000000000
,
0100000000000000
0000000000000000
0010000000000000
0000001000000000
0100000000000000
0000000000000000
0000001000000000
0000001000000000
,
0010001000000000
0000000000000000
0010000000000000
0000001000000000
0100000000000000
0000000000000000
0000010000000000
0000000000000000
,
1000010100000000
0100000000000000
0100000000000000
0000001000000000
,
0000001000000000
0000000000000000
0000000001000000
0000001000000000
0000000001000000
0000000000000000
0000000000000010
0000000001000000
,
0000000000000010
0000000001000000
0000000000010100
0000000000000000
0000000000000000
0000000000000000
0000000000000100
0000000000000000
,
0000000000000000
0000000000000000
0000000000100000
0000000001000000
0000000000100000
0000000000000100
0000000000000010
0000000000000000
,
0000000001100000
0000000000000000
0000000000010000
0000000000000000
0001000000000000
0000000000000000
0000000000100000
0000010000000000
,
0000000000100000
0000010000000000
0000001000000000
0000000000100000
,
0000000001000000
0000000000000000
0000010000000000
0000000000000000
0000001000000000
0000000000000000
0100000000000000
0000001000000000
,
0100000000000000
1000010100000000
0000000000000000
0100000000000000
,
0000000000000000
0000000000000000
0000010000000000
0000000000000000
0000010000000000
0000000000000000
0010000000000000
0000001000000000
,
0100000000000000
0000000000000000
0000001000000000
0000000000000000
0000000000000000
0000000000000000
0100000000000000
0010000000000000
,
0000010000000000
0000001000000000
0100000000000000
0000000000000000
0000010000000000
0000000000000000
0101000000000000
0000010000000000
,
0000001000000000
0000000000000000
0000001000000000
0000001000000000
0000001001000000
0000000000000000
0000000000000000
0000000001000000
,
0000001000000000
0000000001000000
0000001000000000
0000000000000000
0000000000100000
0000000000000000
0001010000000000
0000000001000000
,
0000001000000000
0000000000000000
0000000000100000
0000000000010000
0000010000000000
0001000000000000
0000000000100000
0000000000010000
,
0000010000000000
0001000000000000
0000000000100000
0000000000000000
0000000000000000
0000000000000000
0000000000010000
0001000000000000
,
0000000000010000
0000010000000000
0000001000000000
0000000000100000
,
0000000001000000
0000000000000010
0000000001000000
0000000000000010
,
0000000000000010
0000000000000000
0000000000100000
0000000000000000
0000000000000100
0000000000000000
0000000000100000
0000000000000100
,
0000000000100000
0000000000000100
0000000000001010
0000000000100000
,
0000000001001000
0000000000000000
0000000000100000
0000000001000000
0000000000100000
0000000000000000
0000010000000000
0000001000000000
,
0000010000000000
0000000000100000
0000000001000000
0000010000000000
,
0000001000000000
0000000000000000
0000010000000000
0000010000000000
0000001000000000
0100000000000000
0000010000000000
0000000000000000
,
0000000000000000
0000000000000000
0010000000000000
0000001000000000
0100000000000000
0000000000000000
0000001000000000
0000001000000000
,
0010001000000000
0000000000000000
0010000000000000
0000001000000000
0100000000000000
0000000000000000
0000010000000000
0000000000000000
,
1000010100000000
0010000000000000
0100000000000000
0000010000000000
,
0000001000000000
0000000000000000
0000000001000000
0000001000000000
0000000001000000
0000000000000000
0000000000000010
0000000001000000
,
0000000000000010
0000000000000000
0000000000000100
0000000001000000
0000000000000010
0000000000000000
0000000001000000
0000000001000000
,
0000000001000100
0000000000000000
0000000000000100
0000000001000000
0000000000000010
0000000000000000
0000000000100000
0000000000000000
,
0000000010100001
0000000000000100
0000000000000010
0000000000100000
,
0000000001000000
0000000000000000
0000001000000000
0000000001000000
0000001000000000
0000000000000000
0100000000000000
0000001000000000
,
0100000000000000
0000001000000000
0011000000000000
0000000000000000
0000000000000000
0000000000000000
0000010000000000
0010000000000000
,
0000010000000000
0000000000000000
0010010000000000
0000000000000000
0000000000000000
0000000000000000
0000010000000000
0000001000000000
,
0000000001000000
0000010000000000
0000001000100000
0000000000000000
0000000000000000
0000000000000000
0000000000000000
0000000000000000
;
