#TITLE:舞娘;
#SUBTITLE:Dancing Diva;
#ARTIST:蔡依林 (Jolin Tsai);
#TITLETRANSLIT:wǔniáng;
#SUBTITLETRANSLIT:;
#ARTISTTRANSLIT:Càiyīlín;
#CREDIT:locuuraa [from 02.mp];
#BANNER:Dancing Diva.png;
#BACKGROUND:Dancing Diva.png;
#LYRICSPATH:;
#CDTITLE:../CDTitles/3DDX.png;
#MUSIC:Dancing Diva.mp3;
#OFFSET:0.146;
#SAMPLESTART:30.000;
#SAMPLELENGTH:10.000;
#DISPLAYBPM:126.0;
#BGCHANGES:;
#NOTEDATA:;
#STEPSTYPE:ds3ddx-single;
#DESCRIPTION:Pretty;
#DIFFICULTY:Easy;
#METER:4;
#RADARVALUES:;
#BPMS:0.000=126.400;
#STOPS:0.000=0.000;
#DELAYS:;
#NOTES:
00000000
00000000
00000000
00000000
,
00000000
00110000
00000000
00010100
,
00000000
00100000
00000100
01000000
,
00000010
11000000
00000000
10100000
,
00000000
00000011
00000000
00000101
,
00000000
00100000
00000000
00000100
,
00000000
00110000
00000000
10000001
,
00000000
00000100
00000000
00100000
,
00000000
10000001
00000000
00010100
,
00000000
01000000
00000000
00000010
,
00000000
00100000
00000100
01000000
,
00000000
10000001
00000000
00001000
,
00000000
00100000
00000000
00000100
,
00000000
11000000
00000000
00000011
,
00000000
00100000
00000000
00000010
,
00000000
01000000
00100000
00000100
,
00000010
01000000
00000000
00000010
,
00000000
10100000
00000000
00000101
,
00000000
01000000
00000000
00000100
,
00000000
11000000
11000000
11000000
,
00000000
00010100
00000000
00110000
,
00000000
00000010
01000000
00000010
,
00000000
00110000
00000000
00010100
,
00000000
01000000
00000010
01000000
,
00000000
00000011
00000000
00000101
,
00000000
11000000
00000000
10100000
,
00000000
00000000
00000100
00100000
00000100
00000000
01000000
00000010
,
01000000
00000011
00000000
11000000
,
00000000
00100100
00000100
00100000
,
00000000
00100100
00000100
00100000
,
00000000
00000100
00000000
00100000
,
00000000
00000010
01000000
00000100
,
00110000
00000011
00000000
11000000
,
00000000
00000100
00100000
00000100
,
00000000
11000000
00000000
00000011
,
00000000
00100000
00000100
00110000
,
00000000
00100100
00100000
00000100
,
00000000
00100100
00100000
00000100
,
00000000
00010100
00000000
00110000
,
00000000
00000010
01000000
00000100
,
00110000
00000011
00000000
11000000
,
00000000
00000100
00100000
00000100
,
00000000
00000010
01000000
00000010
,
00000010
00100000
00000100
00110000
,
00000000
00000010
01000000
00000010
,
01000010
00000000
00000000
00000000
;
#NOTEDATA:;
#STEPSTYPE:ds3ddx-single;
#DESCRIPTION:Power;
#DIFFICULTY:Medium;
#METER:4;
#RADARVALUES:;
#BPMS:0.000=126.400;
#STOPS:0.000=0.000;
#DELAYS:;
#NOTES:
00000000
00000000
00000000
00000000
,
00000000
01100001
00000000
01100001
,
00000000
00000100
00100000
01000000
,
00000010
00000000
00100000
00000001
00100100
00000000
00000100
10000000
,
00100100
00000000
01000000
00000010
01000000
00000000
00000010
01000000
,
00000010
00000000
00100000
00000000
00000100
00010000
00000010
00000000
,
00100000
00000000
00000010
01000000
00000100
00100000
00000100
01000000
,
00000010
00000000
00100000
00000001
00100100
00000000
00000100
10000000
,
00100100
00000000
01000000
00000010
01000000
00000000
00000010
01000000
,
00000010
00000000
00100000
00000000
00000100
00010000
00000010
00000000
,
00100000
00000000
00000010
01000000
00000100
00100000
00000000
00000000
,
00000000
00001000
01000100
10000001
,
00100010
00000000
01000000
00000000
10100000
00000000
00100000
01000000
,
00100000
00000000
00000010
00000000
00000101
00000000
00000100
00000010
,
00000100
00000010
01000000
00000100
,
00100000
00000000
00000010
00000000
00000100
00000000
00100000
01000000
,
00000010
00100000
01000000
00000100
,
00000010
00000000
00100000
00000000
00000100
00000000
00100000
00010000
,
01000000
00000000
00000100
00000000
00100000
00000000
00000100
00010000
,
00000010
11000000
11000000
11000000
,
00000000
00010010
01000000
00010010
,
00000000
01010000
00000010
01010000
,
00000000
00000000
00000100
00010000
00100000
00000000
00100000
00010000
,
00000100
00000010
00000000
01000000
,
00000000
00000100
00100000
00000010
,
00000010
01000000
00000010
00100000
,
00100000
00000100
00000011
00100000
,
11000000
00000010
00000000
00000010
,
00000000
00000000
10100001
00000000
00010100
00000000
00000010
01000000
,
00000010
01000000
00100000
00000100
,
00000010
00000000
10100001
00000000
00010100
00000000
00000010
01000000
,
00000010
00000000
00100000
00000000
00000100
00000100
00100000
00000000
,
00001010
00100000
00000100
01000000
,
00000010
00110000
00000000
00010100
,
00000000
01000000
00000010
01000000
,
00000010
00000000
01000010
00000000
00100100
00100100
00000000
00000000
,
00000000
10100000
00010100
10000010
,
01000001
00000000
00000010
00000100
00100000
00000000
01000000
00000010
,
01000000
10100000
00010100
10000010
,
01000001
00000000
00100000
00000000
00000100
00000100
00100000
00000000
,
00001010
00100000
00000100
01000000
,
00000010
01010000
00000010
01010000
,
00000000
00000100
00100000
00000100
,
00100000
00000000
00100100
00000000
01000010
01000010
00000000
00000000
,
00000000
00001000
00100010
10000001
,
01000100
00000000
00000000
00000000
;
#NOTEDATA:;
#STEPSTYPE:ds3ddx-double;
#DESCRIPTION:Dual;
#DIFFICULTY:Medium;
#METER:4;
#RADARVALUES:;
#BPMS:0.000=126.400;
#STOPS:0.000=0.000;
#DELAYS:;
#NOTES:
0000000000000000
0000000000000000
0000000000000000
0000000000000000
,
0000000000000000
0001101001011000
0000000000000000
0001010000110000
,
0000000000000000
0000010000000000
0000000000100000
0000001000000000
,
0000000001000000
0000000000000000
0000010000000000
0001000000000000
0000000000100000
0000000000000000
0000000000100000
0000000000010000
,
0000010000000000
0000000000000000
0000000001000000
0000001000000000
0000000001000000
0000000000000000
0000001000000000
0000000001000000
,
0000001000000000
0000000001000000
0000000000000010
0000000000000100
,
0000000000100000
0000000000000000
0000000001000000
0000000000000010
0000000000100000
0000000000000100
0000000000100000
0000000000000010
,
0000000001000000
0000001000000000
0100000000000000
0010000000000000
,
0000010000000000
0000000000000000
0000001000000000
0100000000000000
0000010000000000
0010000000000000
0000010000000000
0100000000000000
,
0000001000000000
0000000000000000
0010000000000000
0000000000000000
0000010000000000
0001000000000000
0000001000000000
0000000000000000
,
0010000000000000
0000000000100000
0000010000000000
0000010000100000
,
0000000000000000
0000000001100000
0000000000000000
0000000001000010
,
0000000000000000
0000000000000000
0000000000000010
0000000000000000
0000000000000101
0000000000000000
0000000000100000
0000000001000000
,
0000000000100000
0000000000000000
0000000000000010
0000000000000000
0000000000000101
0000000000000000
0000000000100000
0000000001000000
,
0000000000100000
0000000000000010
0000000001000000
0000001000000000
,
0100000000000000
0000000000000000
0000001000000000
0000000000000000
0000010000000000
0000000000000000
0010000000000000
0100000000000000
,
0000001000000000
0010000000000000
0100000000000000
0000010000000000
,
0000001000000000
0000000000000000
0000000001000000
0000000000000000
0000001000000000
0000000000000000
0000000000100000
0000010000000000
,
0000000000100000
0000000000000000
0000010000000000
0000000000000000
0000000000100000
0000000000000000
0000001000000000
0000000001000000
,
0000001000000000
0000010000100000
0010010000000000
0000011000000000
,
0000000000000000
0001000001000000
0000001000000000
0001000001000000
,
0000000000000000
0000001000010000
0000000001000000
0000001000010000
,
0000000000000000
0000000000000000
0000000000100000
0000000000000001
0000000000100100
0000000000000000
0000000000000100
0000000010000000
,
0000000000100100
0000000000000010
0000000000000000
0000000001000000
,
0000000000000000
0000000000100000
0000000001000000
0000000000000100
,
0000000000100000
0000010000000000
0010000000000000
0000010000000000
,
0000010000000000
0010000000000000
1100000000000000
0000010000000000
,
0000001100000000
0100000000000000
0000000000000000
0000000001000000
,
0000000000000000
0000000000000000
0000010000010000
0001000000000000
0000000000110000
0000000000000000
0000000001000000
0000000000000000
,
0000001000000000
0000000000000000
0000010000010000
0001000000000000
0000000000110000
0000000000000000
0000000001000000
0000000000000000
,
0000001000000000
0000000000000000
0010000000000000
0000000000000000
0000010000000000
0000000000000000
0000001000000000
0100000000000000
,
0000001000000000
0000000000000000
0000000001100000
0000000000000000
0000000000000100
0000000000000100
0000000000100000
0000000000000000
,
0000000000001010
0000000000100000
0000000000000100
0000000001000000
,
0000000000100000
0000000001100000
0000000000000000
0000011000000000
,
0000000000000000
0100000000000000
0000001000000000
0000010000000000
,
0000001000000000
0000000000000000
0000011000000000
0000000000000000
0110000000000000
0110000000000000
0000000000000000
0000000000000000
,
0000000000000000
0000000000000000
0000010000010000
0001000000000000
0000000000110000
0000000000000000
0000000001000000
0000000000000000
,
0000001000000000
0000000000000000
0000010000010000
0001000000000000
0000000000110000
0000000000000000
0000000001000000
0000000000000000
,
0000001000000000
0000000000000000
0000000001000000
0000000000000000
0000000000000010
0000000000000000
0000000001000000
0000000000000010
,
0000000001000000
0000000000000000
0000011000000000
0000000000000000
0010000000000000
0010000000000000
0000010000000000
0000000000000000
,
0100100000000000
0000010000000000
0010000000000000
0000001000000000
,
0000010000000000
0000011000000000
0000000000000000
0000000001100000
,
0000000000000000
0000000000000010
0000000001000000
0000000000100000
,
0000000001000000
0000000000000000
0000000001100000
0000000000000000
0000000000000110
0000000000000110
0000000000000000
0000000000000000
,
0000000000000000
0000001001000000
0000001001000000
0000010000100000
,
0001101001011000
0000000000000000
0000000000000000
0000000000000000
;
