#TITLE:DETESTATION [증오];
#SUBTITLE:;
#ARTIST:극혼 (Kukhon);
#TITLETRANSLIT:;
#SUBTITLETRANSLIT:;
#ARTISTTRANSLIT:;
#CREDIT:locuuraa [from 51.mp];
#BANNER:DETESTATION.png;
#BACKGROUND:DETESTATION.png;
#LYRICSPATH:;
#CDTITLE:../CDTitles/3DDX.png;
#MUSIC:DETESTATION.mp3;
#OFFSET:-0.080;
#SAMPLESTART:5.000;
#SAMPLELENGTH:10.000;
#DISPLAYBPM:260.0;
#BGCHANGES:;
#NOTEDATA:;
#STEPSTYPE:ds3ddx-single;
#DESCRIPTION:Pretty;
#DIFFICULTY:Easy;
#METER:10;
#RADARVALUES:;
#BPMS:0.000=259.863;
#STOPS:0.000=0.000;
#DELAYS:;
#NOTES:
00000000
00000000
00000000
00000000
,
00000000
00000000
00000000
00000000
,
00000000
00000000
00000000
00000000
,
00000000
00000000
00000000
00000000
,
00000000
00000000
00000000
00000000
,
00000000
00000000
00000000
00100000
,
00000100
11000000
00000000
01000010
,
00000000
00100100
00000000
00000100
,
00100000
00000011
00000000
01000010
,
00000000
00100100
00000000
01000000
,
00000010
01000000
01000000
00000100
,
00100000
00010100
00000000
00100000
,
00000100
01000000
00000010
01000010
,
00000000
01000010
00000000
00000010
,
01000000
00000010
00000010
00100000
,
00000100
00110000
00000000
00000100
,
00100000
00000100
00000100
00100000
,
00000100
11000000
00000000
00100000
,
00000100
00100000
00100000
00000100
,
00100000
00000011
00000000
01000000
,
01000000
00100000
00100000
00000100
,
00000100
00000010
00000010
11000000
,
00000000
00000000
00000000
00000000
,
00000000
00110100
00000000
00000010
,
01000000
00000100
00000100
00000010
,
01000000
00100000
00000000
01000100
,
00000000
00100010
00000000
00000000
,
00000000
00000000
00000000
01000000
,
00000010
00100000
00100000
01000000
,
00000010
00000100
00000000
00100010
,
00000000
01000100
00000000
00000000
,
00000000
00000000
00000000
01000000
,
00000100
01000000
00100000
00000010
,
00000100
10000010
00000000
00000010
,
00100000
00000010
00000100
01000000
,
00100000
01000001
00000000
10000100
,
00000000
00100001
00000000
00100100
,
00000000
01000010
00000000
00100000
,
00100000
01000000
01000000
00000010
,
00000100
00000010
00000000
00000010
,
00000010
00000100
00000100
00100000
,
01000000
00100000
00000000
10000010
,
00000000
01000001
00000000
00000100
,
00100000
00000100
00000000
01000001
,
00000000
10000010
00000000
00100000
,
00000100
10100001
00000000
00100100
,
00000000
00000100
00100000
00000010
,
01000000
00010100
00000000
01000000
,
00100000
01000000
00000000
00000110
,
00000000
00000110
00000000
01000000
,
00000000
00100000
00000000
00000100
,
00000000
00000010
00000000
01000000
,
00000000
00100000
00000000
00000100
,
00000000
00000010
00000000
00100000
,
00100000
00000100
00100000
00000100
,
00000100
10100000
00000000
00000010
,
00000010
01000000
00000010
01000000
,
01000000
00000011
00000000
10100000
,
00000000
00000101
00000000
00100100
,
00000000
01010000
00000000
00000100
,
01000000
00000010
00100000
00000100
,
00100000
10000010
00000000
00000010
,
00100000
00000100
01000000
00000010
,
01000000
10000010
00000000
01000000
,
00000100
00100000
00000010
01000000
,
00000010
01000001
00000000
00000000
,
00000000
00110100
00000000
00000000
,
00000000
01000010
00000000
00000000
,
00000000
01000011
00000000
00000000
,
00000000
11000010
00000000
00000000
,
00000000
00100100
00000000
00000000
,
00000000
00100100
00000000
01000000
,
00000010
00000100
00000010
00000010
,
01000000
00100000
00000000
00000000
,
00000000
11000010
00000000
00000000
,
00000000
01000011
00000000
00000100
,
00100000
01000000
01000000
00100000
,
00000100
00000010
00000000
00000000
,
00000000
00100100
00000000
00000000
,
00000000
00100100
00000000
00100100
,
00000000
01000010
00000000
00100100
,
00000000
01000010
00000000
00000010
,
00000010
00000100
00000100
00100000
,
00100000
01000000
01000000
00000010
,
00000100
00100000
01000000
00000010
,
00000100
00100000
01000000
00000011
;
#NOTEDATA:;
#STEPSTYPE:ds3ddx-single;
#DESCRIPTION:Power;
#DIFFICULTY:Medium;
#METER:10;
#RADARVALUES:;
#BPMS:0.000=259.863;
#STOPS:0.000=0.000;
#DELAYS:;
#NOTES:
00000000
00000000
00000000
00000000
,
00000000
00000000
00000000
00000000
,
00000000
00000000
00000000
00000000
,
00000000
00000000
00000000
00000000
,
00000000
00000000
00000000
00000000
,
00000000
00000000
00000000
00100000
,
00000100
00000000
00100100
00000000
00000000
00000000
00000100
00100000
,
00000100
01000000
00000010
00000000
00000000
00000000
00000100
00000000
,
00100000
00000000
00100100
00000000
00000000
00000000
00100000
00000100
,
00100000
00000010
01000000
00000000
00000000
00000000
01000000
00000000
,
00000010
00000000
01000010
00000000
00100100
00000000
00000010
00100000
,
00000010
01000000
00000100
00000000
00000000
00000000
01000000
00000000
,
00100000
00000000
01100000
00000000
01100000
00000000
00000010
00000100
,
00000010
00000000
00000100
00000010
00000100
00000000
00000010
00000000
,
01000000
00000000
01000010
00000000
00100100
00000000
00000010
01000000
,
00000010
00100000
00000100
00000000
00000000
00000000
01000000
00000000
,
00000010
00000000
01000010
00000000
00100100
00000000
01000000
00000010
,
01000000
00000100
01000000
00000000
00000000
00000000
00000100
00000000
,
00100000
00000000
00100100
00000000
01000010
00000000
00000100
00100000
,
00000100
01000000
00000100
00000000
00000000
00000000
01000000
00100000
,
01000000
00000000
00100000
00000100
00100000
00000000
00000100
00000010
,
00000100
00000000
00000010
01000000
00000010
00000000
11000001
00000000
,
00000000
00000000
00000000
00000000
,
00000000
01000011
00000000
00100100
,
00000000
00000000
00000000
00100100
,
00000000
00000000
00000000
00000000
00000000
00000000
00000010
01000000
,
00000100
00100000
00000011
00000000
00000000
00000000
00000000
00000000
,
00000000
11000010
00000000
00100100
,
00000000
00000000
00000000
00100100
,
00000000
00000000
00000000
00000000
00000000
00000000
01000000
00000010
,
00100000
00000100
11000000
00000000
00000000
00000000
00000000
00000000
,
00000000
01000011
00000000
01000000
,
00000100
00000000
01000000
00100000
01000000
00000000
00000011
00000000
,
10000100
00000011
00000000
00000010
,
00100000
00000000
00000010
00000100
00000010
00000000
11000000
00000000
,
00100001
11000000
00000000
01000001
,
00000000
10000010
00000000
01000010
,
00000000
00000000
00100100
00000000
00000000
00000000
00100000
00000100
,
01000000
00000100
00100000
00000010
01000000
00000100
00100000
00000100
,
01000000
00000010
01000000
00000000
00000000
00000000
00000100
00100000
,
00000010
00100000
00000100
01000000
00000010
00100000
00000100
00100000
,
00000010
01000000
00000010
00000000
00000000
00000000
01000000
00000000
,
00000010
01000000
00000010
10100000
,
00100001
10100000
00100001
00000010
,
01000000
00000010
01000000
00000101
,
10000100
00000101
10000100
00000000
,
00100000
00000000
00000100
00000000
01000000
00000000
00000010
01000000
,
00000100
00100000
00000011
00000000
00000000
00000000
00000100
00000000
,
00100000
00000010
01000000
01000010
,
00000000
01000010
00000000
00100000
,
00000100
00000000
01000000
00000000
01000000
00000000
00000100
00100000
,
00000010
00100000
00000100
00000000
00000000
00000000
01100000
00000000
,
00000000
00000000
00000110
00000000
00000000
00000000
00000010
01000000
,
00000000
01000000
00000010
00000000
01000000
00000000
00000010
01000000
,
00000010
01000000
00000100
00100000
00000100
00100000
00000010
00000000
,
01000000
00000000
10000011
00000000
00000000
00000000
00100000
00000100
,
00100000
00000100
01000000
00000010
01000000
00000010
00100000
00000000
,
00000100
10100001
00000000
01010100
,
00000000
00110010
00000000
00000000
,
00000000
00000000
11000011
00000000
00000000
00000000
00000100
01000000
,
00000100
01000000
00000010
00100000
00000010
00100000
00000100
00000000
,
00100000
00000000
10000010
00000000
00000000
00000000
00000010
00100000
,
00000010
00100000
00000100
01000000
00000100
01000000
00000010
00000000
,
01000000
00000000
10000011
00000000
00000000
00000000
01000000
00000100
,
01000000
00000100
00100000
00000010
00100000
00000010
01000000
00000000
,
00000010
11000001
00000000
00000000
,
00000100
00100000
00000010
00000000
01000000
00000000
00010100
00000000
,
00000000
00100000
00100000
00000000
,
00000000
00000011
00000000
00000000
,
00000000
11000000
00000000
00000010
,
00000100
01010000
00000000
01000000
,
00100000
00010010
00000000
01000000
,
00000010
00000100
00000110
00000010
,
01000000
00100000
01100000
00000000
,
01000000
10000010
00000000
01000000
,
00000010
00110000
00000000
00000100
,
00100000
01000000
01100000
00100000
,
00000100
00000010
00000110
00000000
,
00000100
00100001
00000000
00000100
,
00100000
00010010
00000000
00100000
,
00000010
00010110
00000000
00000100
,
01000000
00000000
01110000
00000000
00000000
00000000
00000010
00000100
,
00000010
00000000
00000100
00100000
00000100
00000000
00100000
01000000
,
00100000
00000000
01000000
00000010
01000000
00000000
00000010
01000000
,
00000010
01000000
00000100
01000000
00000100
01000000
00100000
00000010
,
00100000
00000010
01000000
00000010
01000000
00000010
11000001
00000000
;
#NOTEDATA:;
#STEPSTYPE:ds3ddx-double;
#DESCRIPTION:Dual;
#DIFFICULTY:Medium;
#METER:10;
#RADARVALUES:;
#BPMS:0.000=259.863;
#STOPS:0.000=0.000;
#DELAYS:;
#NOTES:
0000000000000000
0000000000000000
0000000000000000
0000000000000000
,
0000000000000000
0000000000000000
0000000000000000
0000000000000000
,
0000000000000000
0000000000000000
0000000000000000
0000000000000000
,
0000000000000000
0000000000000000
0000000000000000
0000000000000000
,
0000000000000000
0000000000000000
0000000000000000
0000000000000000
,
0000000000000000
0000000000000000
0000000000000000
0000000000000100
,
0000000000100000
0000000000000000
0000000001000000
0000000000000000
0000001000000000
0000000000000000
0000000000100000
0000010000000000
,
0000000000100000
0000001000000000
0000000001000000
0000000000000000
0000000000000000
0000000000000000
0000000000100000
0000000000000000
,
0000010000000000
0000000000000000
0000001000000000
0000000000000000
0100000000000000
0000000000000000
0000010000000000
0010000000000000
,
0000010000000000
0100000000000000
0000001000000000
0000000000000000
0000000000000000
0000000000000000
0100000000000000
0000000000000000
,
0000001000000000
0000000000000000
0000011000000000
0000000000000000
0000011000000000
0000000000000000
0000000001000000
0000010000000000
,
0000000001000000
0000010000000000
0000000000100000
0000000000000000
0000000000000000
0000000000000000
0000000001000000
0000000000000000
,
0000000000000010
0000000000000000
0000000000000110
0000000000000000
0000000000000110
0000000000000000
0000000001000000
0000000000100000
,
0000000001000000
0000000000000000
0000000000100000
0000000001000000
0000000000100000
0000000000000000
0000000001000000
0000000000000000
,
0000000000100000
0000000000000000
0000001000100000
0000000000000000
0000010001000000
0000000000000000
0000000000100000
0000001000000000
,
0000000000100000
0000001000000000
0000000001000000
0000000000000000
0000000000000000
0000000000000000
0000001000000000
0000000000000000
,
0000000001000000
0000000000000000
0000000000000010
0000000000000000
0000000001000000
0000000000000000
0000000000000010
0000000001000000
,
0000000000000010
0000000000100000
0000000000000010
0000000000000000
0000000000000000
0000000000000000
0000000000000100
0000000000000000
,
0000000000100000
0000000000000000
0000000000100100
0000000000000000
0000000001000010
0000000000000000
0000000000000100
0000000000100000
,
0000000000000100
0000000001000000
0000000000000100
0000000000000000
0000000000000000
0000000000000000
0000000000000100
0000000000100000
,
0000000000000100
0000000000000000
0000000000100000
0000000001000000
0000000000100000
0000000000000000
0000000001000000
0000001000000000
,
0000000001000000
0000000000000000
0000001000000000
0000000001000000
0000001000000000
0000000000000000
0000000000110000
0000000000000000
,
0000000000000000
0000000000000000
0000000000000000
0000000000000000
,
0000000000000000
0001010000100000
0000000000000000
0000000000000101
,
0000000000000000
0000000000000000
0000000000000000
0001100000011000
,
0000000000000000
0000000000000000
0000000000000000
0000000000000000
0000000000000000
0000000000000000
0000000000000010
0000000001000000
,
0000000000000100
0000000000100000
0000000000000011
0000000000000000
0000000000000000
0000000000000000
0000000000000000
0000000000000000
,
0000000000000000
0000001001000000
0000000000000000
1100000000000000
,
0000000000000000
0000000000000000
0000000000000000
0001000000010000
,
0000000000000000
0000000000000000
0000000000000000
0000000000000000
0000000000000000
0000000000000000
0100000000000000
0000001000000000
,
0010000000000000
0000010000000000
1100000000000000
0000000000000000
0000000000000000
0000000000000000
0000000000000000
0000000000000000
,
0000000000000000
0100001100000000
0000000000000000
0100000000000000
,
0000010000000000
0000000000000000
0000001000000000
0000010000000000
0000001000000000
0000000000000000
0000000000110000
0000000000000000
,
0001000000100000
0000000000110000
0000000000000000
0000001000000000
,
0000000000100000
0000000000000000
0000000001000000
0000000000100000
0000000001000000
0000000000000000
0000000000000011
0000000000000000
,
0000000010000100
0000000000000011
0000000000000000
0000000001000001
,
0000000000000000
0000000010000010
0000000000000000
0000000000100100
,
0000000000000000
0000000000000000
0000010000100000
0000000000000000
0000000000000000
0000000000000000
0010000000000000
0000010000000000
,
0100000000000000
0000010000000000
0010000000000000
0000001000000000
0100000000000000
0000010000000000
0010000000000000
0000010000000000
,
0100000000000000
0000001000000000
0100000000000000
0000000000000000
0000000000000000
0000000000000000
0000010000000000
0010000000000000
,
0000001000000000
0000010000000000
0000000000100000
0000001000000000
0000000001000000
0000001000000000
0000000000100000
0000010000000000
,
0000000001000000
0000000000100000
0000000000000100
0000000000000000
0000000000000000
0000000000000000
0000000000000010
0000000000000000
,
0000000000000100
0000000000100000
0000010000000000
0000000000110000
,
0001000000100000
0000000000110000
0001000000100000
0000000000100000
,
0000010000000000
0000001000000000
0100000000000000
0000010100000000
,
1000010000000000
0000010100000000
1000010000000000
0000000000000000
,
0010000000000000
0000000000000000
0000010000000000
0000000000000000
0100000000000000
0000000000000000
0000001000000000
0100000000000000
,
0000010000000000
0010000000000000
0000001100000000
0000000000000000
0000000000000000
0000000000000000
0000010000000000
0000000000000000
,
0000000000100000
0000000001000000
0000000000000010
0000000001000010
,
0000000000000000
0000000001000010
0000000000000000
0000000000100000
,
0000000000000100
0000000000000000
0000000001000000
0000000000000000
0000000000100000
0000000000000000
0000010000000000
0000000000100000
,
0000001000000000
0000000000100000
0000010000000000
0000000000000000
0000000000000000
0000000000000000
0000011000000000
0000000000000000
,
0000000000000000
0000000000000000
0000000001100000
0000000000000000
0000000000000000
0000000000000000
0000001000000000
0000000001000000
,
0000000000000000
0000000001000000
0000000000000010
0000000000000000
0000000001000000
0000000000000000
0000000000000010
0000000001000000
,
0000000000000010
0000000001000000
0000000000000100
0000000000100000
0000000000000100
0000000000100000
0000000000000010
0000000000000000
,
0000000001000000
0000000000000000
0000000010000011
0000000000000000
0000000000000000
0000000000000000
0000000000100000
0000000000000100
,
0000000000100000
0000000000000100
0000000000100000
0000000001000000
0000000000100000
0000000001000000
0000001000000000
0000000000000000
,
0000000000100000
0000010000000000
0000000000000000
0000001000110000
,
0000000000000000
0001010001000000
0000000000000000
0000000000000000
,
0000000000000000
0000000000000000
1100001100000000
0000000000000000
0000000000000000
0000000000000000
0000010000000000
0100000000000000
,
0000010000000000
0100000000000000
0000010000000000
0000001000000000
0000010000000000
0000001000000000
0000010000000000
0000000000000000
,
0010000000000000
0000000000000000
1000001000000000
0000000000000000
0000000000000000
0000000000000000
0010000000000000
0000010000000000
,
0010000000000000
0000000000000000
0000010000000000
0000001000000000
0000010000000000
0000000000000000
0000001000000000
0000000001000000
,
0000001000000000
0000000000000000
0001000001000000
0000000000000000
0000000000000000
0000000000000000
0000000001000000
0000000000100000
,
0000000001000000
0000000000000000
0000000000100000
0000000000000100
0000000000100000
0000000000000000
0000000000000010
0000000001000000
,
0000000000000010
0000000011000001
0000000000000000
0000000000000000
,
0000000000000100
0000000000100000
0000000000000010
0000000000000000
0000000001000000
0000000000000000
0000000000010100
0000000000000000
,
0000000000000000
0000000000100000
0000010000000000
0000000000000000
,
0000000000000000
1100000000000000
0000000000000000
0000000000000000
,
0000000000000000
0000001100000000
0000000000000000
0000001000000000
,
0000010000000000
0101000000000000
0000000000000000
0100000000000000
,
0010000000000000
0001001000000000
0000000000000000
0100000000000000
,
0000001000000000
0000010000000000
0000010000100000
0000000000100000
,
0000000001000000
0000000000000010
0000000001000010
0000000000000000
,
0000000001000000
0000000010000010
0000000000000000
0000000001000000
,
0000000000000010
0000000000110000
0000000000000000
0000000000000100
,
0000000000100000
0000000001000000
0000000001100000
0000000001000000
,
0000001000000000
0000010000000000
0000011000000000
0000000000000000
,
0010000000000000
1000010000000000
0000000000000000
0010000000000000
,
0000010000000000
0101000000000000
0000000000000000
0010000000000000
,
0000001000000000
0000010000000000
0000000000000000
0000000001000000
,
0000000000000100
0000000000000000
0000000000000010
0000000000000000
0000000000000000
0000000000000000
0000000000000010
0000000000000100
,
0000000000000010
0000000000000000
0000000000000100
0000000000100000
0000000000000100
0000000000000000
0000000000100000
0000000001000000
,
0000000000100000
0000000000000000
0000010000000000
0000000000100000
0000010000000000
0000000000000000
0000001000000000
0100000000000000
,
0000001000000000
0100000000000000
0000001000000000
0010000000000000
0000001000000000
0010000000000000
0000001000000000
0000010000000000
,
0000001000000000
0000010000000000
0000001000000000
0000000000100000
0000001000000000
0000000000100000
0001101000011000
0000000000000000
;
