#TITLE:Come on over baby;
#SUBTITLE:;
#ARTIST:Christa James;
#TITLETRANSLIT:;
#SUBTITLETRANSLIT:;
#ARTISTTRANSLIT:;
#CREDIT:locuuraa [from 58.mp];
#BANNER:Come on over baby.png;
#BACKGROUND:Come on over baby.png;
#LYRICSPATH:;
#CDTITLE:../CDTitles/3DDX.png;
#MUSIC:Come on over baby.mp3;
#OFFSET:-0.047;
#SAMPLESTART:0.000;
#SAMPLELENGTH:10.000;
#DISPLAYBPM:119.0;
#BGCHANGES:;
#NOTEDATA:;
#STEPSTYPE:ds3ddx-single;
#DESCRIPTION:Pretty;
#DIFFICULTY:Easy;
#METER:5;
#RADARVALUES:;
#BPMS:0.000=118.855;
#STOPS:0.000=0.000;
#DELAYS:;
#NOTES:
00000000
00000000
00000000
00000000
,
00000000
00000000
00000000
00000000
,
00100000
00000100
00100001
00000000
,
00000100
00100000
10000100
00000000
,
01000000
00000000
00000010
00000000
,
00000010
00000000
01000000
00000000
,
00000100
00100000
10000100
00000000
,
00100000
00000100
00100001
00000000
,
00000010
00000000
01000000
00000000
,
01000000
00000000
00000010
00000000
,
00000000
00100100
00000000
00100100
,
00000000
00100000
00000100
00100000
,
00000000
01000010
00000000
01000010
,
00000000
01000000
00000010
01000000
,
00000010
00000100
00100000
01000000
,
01000000
00100000
00000100
00000010
,
11000000
00000000
00000011
00000000
,
01000010
00000000
00000000
00000000
,
00000010
01000000
10000010
00000000
,
01000000
00000010
01000001
00000000
,
00000100
00000000
00100000
00000000
,
00100000
00000000
00000100
00000000
,
01000000
00000010
01000001
00000000
,
00000010
01000000
10000010
00000000
,
00100000
00000000
00000100
00000000
,
00100000
00000010
01000000
00000010
,
01000010
00000000
00000000
00000000
,
01000000
01000000
01000000
00000000
00100000
00100000
00100000
00000000
,
00000100
00000100
00000100
00000000
00000010
00000010
00000010
00000000
,
01000000
01000000
01000000
00000000
00000010
00000010
00000010
00000000
,
01000000
00000000
00000000
00000000
,
00000010
00000000
00000000
00000000
,
00100000
00000000
00000100
00000000
,
00100100
00000000
00100100
00000000
,
00000010
00000100
00000010
00000010
,
01000000
00100000
01000000
01000000
,
00000010
00000000
00000000
00000000
,
01000000
00000000
00000000
00000000
,
00000100
00100000
01000000
00000010
,
00000010
01000000
00100000
00000100
,
00100100
00000000
00000000
00000000
,
01000010
00000000
01000010
00000000
,
01000000
00100000
01000000
01000000
,
00000010
00000100
00000010
00000010
,
01000000
00000000
00000000
00000000
,
00000010
00000000
00000000
00000000
,
00100000
00000100
00000010
01000000
,
01000000
00000010
00000100
00100000
,
00100100
00000000
00000000
00000000
,
01000010
00000000
00100100
00000000
,
01000010
00000000
00000000
00000000
;
#NOTEDATA:;
#STEPSTYPE:ds3ddx-single;
#DESCRIPTION:Power;
#DIFFICULTY:Medium;
#METER:5;
#RADARVALUES:;
#BPMS:0.000=118.855;
#STOPS:0.000=0.000;
#DELAYS:;
#NOTES:
00000000
00000000
00000000
00000000
,
00000000
00000000
00000000
00000000
,
01000000
00000000
00000010
00000000
01000000
00000100
01000000
00000000
,
00000010
00000000
01000000
00000000
00000010
00100000
00000010
00000000
,
01000000
00000000
00000100
00000000
00100000
10010000
00100000
00000000
,
00000010
00000000
00100000
00000000
00000100
00010001
00000100
00000000
,
01000001
00000000
00000000
00000000
01000000
00000010
01000000
00000000
,
10000010
00000000
00000000
00000000
00000010
01000000
00000010
00000000
,
00100000
00000100
01000000
00000010
,
00110100
00000000
00000000
00000000
,
00000000
10000000
01000000
00000000
00000000
10000000
01000000
00000000
,
00000000
10000000
01000000
00010000
00000100
10000000
01000000
00000000
,
00000000
00000001
00000010
00000000
00000000
00000001
00000010
00000000
,
00000000
00000001
00000010
00010000
00100000
00000001
00000010
00000000
,
01000000
00000000
00100000
00000000
00000100
00000010
01000000
00000000
,
00000010
00000000
00000100
00000000
00100000
01000000
00000010
00000000
,
01000001
00000000
10000010
00000000
,
01000010
00000000
00000000
00000000
,
00000010
00000000
01000000
00000000
00000010
00100000
00000010
00000000
,
01000000
00000000
00000010
00000000
01000000
00000100
01000000
00000000
,
00000010
00000000
00100000
00000000
00000100
00010001
00000100
00000000
,
01000000
00000000
00000100
00000000
00100000
10010000
00100000
00000000
,
10000010
00000000
00000000
00000000
00000010
01000000
00000010
00000000
,
01000001
00000000
00000000
00000000
01000000
00000010
01000000
00000000
,
01000010
00000000
00000000
00000000
,
00100010
01000100
00100010
01000100
,
10000011
00000000
00000000
00000000
,
01000000
00100000
01000000
00000100
00100000
00000100
00010001
00000000
,
00000010
00000100
00000010
00100000
00000100
00100000
10010000
00000000
,
01000000
00000100
01000000
00000000
00000010
00100000
00000010
00000000
,
01000000
00000000
00000000
00000000
,
00000010
00000000
00000000
00000000
,
00100000
00000000
00000100
00000000
,
00100100
00000000
00100100
00000000
,
00000010
00000000
01000000
00000000
00000010
00100000
00000010
00000000
,
01000000
00000000
00000010
00000000
01000000
00000100
01000000
00000000
,
00000010
00000000
00000000
00000000
,
01000000
00000000
00000000
00000000
,
00000000
10000000
00000001
00010000
00000100
01000000
00000010
00000000
,
00000000
00000001
10000000
00010000
00100000
00000010
01000000
00000000
,
01000010
00000000
00000000
00000000
,
01000100
00000000
00100010
00000000
,
01000000
00000000
00100000
00000000
00000100
00000010
01000000
00000000
,
00000010
00000000
00000100
00000000
00100000
01000000
00000010
00000000
,
01000000
00000000
00000000
00000000
,
00000010
00000000
00000000
00000000
,
00000000
00000001
10000000
00010000
01000000
00000010
00100000
00000000
,
00000000
10000000
00000001
00010000
00000010
01000000
00000100
00000000
,
00100100
00000000
00000000
00000000
,
01000010
01100000
01000010
00000110
,
01000010
00000000
00000000
00000000
;
#NOTEDATA:;
#STEPSTYPE:ds3ddx-double;
#DESCRIPTION:Dual;
#DIFFICULTY:Medium;
#METER:6;
#RADARVALUES:;
#BPMS:0.000=118.855;
#STOPS:0.000=0.000;
#DELAYS:;
#NOTES:
0000000000000000
0000000000000000
0000000000000000
0000000000000000
,
0000000000000000
0000000000000000
0000000000000000
0000000000000000
,
0100000000000000
0000000000000000
0000001000000000
0000000000000000
0100000000000000
0000010000000000
0100000000000000
0000000000000000
,
0000001000000000
0000010000000000
0000000000100000
0000000000000000
0000010000000000
0000000000100000
0000000001000000
0000000000000000
,
0000000000000010
0000000000000000
0000000001000000
0000000000000000
0000000000000010
0000000000100000
0000000000000010
0000000000000000
,
0000000000000000
0000000000010000
0000000001000000
0000000000000001
0000000001000000
0000000000010000
0000000001000000
0000000000000000
,
0000000000000010
0000000000000000
0000000001000000
0000000000000000
0000000000000010
0000000000100000
0000000000000010
0000000000000000
,
0000000001000000
0000000000100000
0000010000000000
0000000000000000
0000000000100000
0000010000000000
0000001000000000
0000000000000000
,
0100000000000000
0000000000000000
0000001000000000
0000000000000000
0100000000000000
0000010000000000
0100000000000000
0000000000000000
,
0000000110000000
0000000000000000
0000000000000000
0000000000000000
,
0000000000000000
0000000000000001
0000000000000010
0000000000000000
0000000000000000
0000000000010000
0000000000100000
0000000000000000
,
0000000000000000
0000000000100000
0000000000100000
0000010000000000
0000010000000000
0010000000000000
0000010000000000
0000000000000000
,
0000000000000000
1000000000000000
0100000000000000
0000000000000000
0000000000000000
0001000000000000
0000010000000000
0000000000000000
,
0000000000000000
0000010000000000
0000010000000000
0000000000100000
0000000000100000
0000000000000100
0000000000100000
0000000000000000
,
0000000000000010
0000000000000000
0000000000000100
0000000000000000
0000000000100000
0000000001000000
0000000000000010
0000000000000000
,
0000000001000000
0000000000000000
0000000000100000
0000000000000000
0000000000000100
0000000000000010
0000000001000000
0000000000000000
,
0000000001000010
0000000000000000
0000001001000000
0000000000000000
,
0100001000000000
0000000000000000
0000000000000000
0000000000000000
,
0100000000000000
0000000000000000
0000010000000000
0000000000000000
0010000000000000
0000010000000000
0000010000000000
0000000000100000
,
0000000000100000
0000000000000100
0000000000100000
0000000000000000
0000000000000010
0000000000000000
0000000001000000
0000000000000000
,
0000000000000100
0000000000000000
0000000000100000
0000000000000000
0000000000000100
0000000000100000
0000000000100000
0000010000000000
,
0000010000000000
0010000000000000
0000010000000000
0000000000000000
0010010000000000
0000000000000000
0000000000000000
0000000000000000
,
1000001000000000
0000000000000000
0000000000000000
0000000000000000
0000001000000000
0100000000000000
0000001000000000
0000000000000000
,
0100000100000000
0000000000000000
0000000000000000
0000000000000000
0100000000000000
0000001000000000
0100000000000000
0000000000000000
,
0100001000000000
0000000000000000
0000000000000000
0000000000000000
,
0000001001000000
0000011000000000
0000001001000000
0000000001100000
,
0000001001000000
0000000000000000
0000000000000000
0000000000000000
,
0000000001000000
0000001000000000
0000010000000000
0010000000000000
0000010000000000
0000010000000000
0001000000100000
0000000000000000
,
0000001000000000
0000000001000000
0000000000100000
0000000000000100
0000000000100000
0000000000100000
0000010000010000
0000000000000000
,
0000000000100000
0000010000000000
0000000000100000
0000000000000000
0000001000000000
0000000001000000
0000001000000000
0000000000000000
,
0000001001000000
0000000000000000
0000000000000000
0000000000000000
,
0000010000000000
0000000000000000
0000000000000000
0000000000000000
,
0000000000100000
0000000000000000
0000000000000000
0000000000000000
,
0000010000100000
0000000000000000
0000001001000000
0000000000000000
,
0000000000000010
0000000000000000
0000000001000000
0000000000000000
0000000000000010
0000000000100000
0000000000000010
0000000000000000
,
0000000001000000
0000000000100000
0000010000000000
0000000000000000
0000000000100000
0000010000000000
0000001000000000
0000000000000000
,
0100000000000000
0000000000000000
0000001000000000
0000000000000000
0100000000000000
0000010000000000
0100000000000000
0000000000000000
,
0000000000000000
0010001000000000
0000000000000000
0100010000000000
,
0000000000000000
1000000000000000
0000000100000000
0001000000000000
0000010000000000
0100000000000000
0000001000000000
0000000000000000
,
0000000000000000
0000000100000000
1000000000000000
0001000000000000
0010000000000000
0000001000000000
0100000000000000
0000000000000000
,
0100001000000000
0000000000000000
0000000000000000
0000000000000000
,
0000010001000000
0000000000000000
0000001000100000
0000000000000000
,
0000000000000010
0000000000000000
0000000000000100
0000000000000000
0000000000100000
0000000001000000
0000000000000010
0000000000000000
,
0000000001000000
0000000000000000
0000000000100000
0000000000000000
0000000000000100
0000000000000010
0000000001000000
0000000000000000
,
0000000001000010
0000000000000000
0000000000000000
0000000000000000
,
0000011000000000
0000000000000000
0000000001100000
0000000000000000
,
0000000000000000
0000000000000001
0000000010000000
0000000000010000
0000000001000000
0000000000000010
0000000000100000
0000000000000000
,
0000000000000000
0000000010000000
0000000000000001
0000000000010000
0000000000000010
0000000001000000
0000000000000100
0000000000000000
,
0000000000100100
0000000000000000
0000000000000000
0000000000000000
,
0000000001100000
0000001001000000
0000011000000000
0010010000000000
,
0101100000000000
0000000000000000
0000000000000000
0000000000000000
;
