#TITLE:ChillyChaCha;
#SUBTITLE:;
#ARTIST:Jessica Jay;
#TITLETRANSLIT:;
#SUBTITLETRANSLIT:;
#ARTISTTRANSLIT:;
#CREDIT:locuuraa [from 48.mp];
#BANNER:ChillyChaCha.png;
#BACKGROUND:ChillyChaCha.png;
#LYRICSPATH:;
#CDTITLE:../CDTitles/3DDX.png;
#MUSIC:ChillyChaCha.mp3;
#OFFSET:0.089;
#SAMPLESTART:36.000;
#SAMPLELENGTH:10.000;
#DISPLAYBPM:130.0;
#BGCHANGES:;
#NOTEDATA:;
#STEPSTYPE:ds3ddx-single;
#DESCRIPTION:Pretty;
#DIFFICULTY:Easy;
#METER:1;
#RADARVALUES:;
#BPMS:0.000=130.000;
#STOPS:0.000=0.000;
#DELAYS:;
#NOTES:
00000000
00000000
00000000
00000000
,
00000000
00000000
00000000
00000000
,
00000000
00000000
00000000
00000000
,
00000000
00000000
00000000
00000000
,
00000000
00110000
00000000
00000000
,
00000000
00010100
00000000
00000000
,
00000000
01000000
00000000
00000010
,
00000000
01000000
00000000
00000010
,
00000000
11000000
00000000
00000000
,
00000000
00000011
00000000
00000000
,
00000000
00100000
00000000
00100000
,
00000000
00100000
00000000
00000000
,
00000000
00000010
00000000
01000000
,
00000000
00000010
00000000
00000010
,
00000000
01000000
00000000
00000010
,
00000000
01000000
00000000
01000000
,
00000000
00000100
00000000
00100000
,
00000000
00000100
00000000
00000100
,
00000000
00100000
00000000
00000100
,
00000000
00110000
00000000
00000000
,
00000000
00000010
00000000
01000000
,
00000000
00000011
00000000
00000000
,
00000000
00100000
00000000
00000100
,
00000000
00110000
00000000
00000000
,
00000000
00000100
00000000
00000100
,
00000000
00100000
00000000
00100000
,
00000000
00000100
00000000
00100000
,
00000000
00000011
00000000
01000000
,
00000010
01000000
00000000
00000010
,
01000000
00000010
00000000
00100000
,
00000000
00000100
00000000
01000000
,
00000000
00000010
00000000
00100000
,
00000100
00100000
00000000
00000100
,
00100000
00000100
00000000
01000000
,
00000000
00000010
00000000
00000000
,
00000000
00110000
00000000
00010100
,
00000000
01000000
00000000
00000000
,
00000000
00000010
00000000
00000000
,
00000000
00100000
00000000
00000100
,
00000000
00000010
00000000
01000000
,
00000000
00000100
00000000
00100000
,
00000000
01000000
00000000
00000010
,
00000000
01000000
00000010
01000000
,
00000010
01000000
00000000
01000010
;
#NOTEDATA:;
#STEPSTYPE:ds3ddx-single;
#DESCRIPTION:Power;
#DIFFICULTY:Medium;
#METER:1;
#RADARVALUES:;
#BPMS:0.000=130.000;
#STOPS:0.000=0.000;
#DELAYS:;
#NOTES:
00000000
00000000
00000000
00000000
,
00000000
00000000
00000000
00000000
,
00000000
00000000
00000000
00000000
,
00000000
00000000
00000000
00000000
,
00000000
00110000
00000000
00100000
,
00000000
00010100
00000000
00000100
,
00000000
01000000
00000000
00000010
,
00000000
01000000
00000000
00000010
,
00000000
11000000
00000000
01000000
,
00000000
00000011
00000000
00000010
,
00000000
00100000
00000100
00100000
,
00000100
00110000
00000000
00000000
,
00000000
00000010
01000000
00000010
,
00000000
01000000
00000010
01000000
,
00000000
00000100
00100000
00000100
,
00000000
00100000
00000100
00100000
,
00000000
00000010
00000000
01000000
,
00000000
00000010
00000000
00000010
,
00000000
00100000
00000100
01000000
,
00000010
11000000
00000000
00000000
,
00000000
00000010
01000000
00000010
,
01000000
00000011
00000000
00100000
,
00000000
00000100
00100000
00000100
,
00100000
00010100
00000000
01000000
,
00000000
00000100
00000000
00000010
,
00000000
00100000
00000000
01000000
,
00000000
00000100
00100000
00000010
,
00000010
11000000
00000000
00000010
,
00000100
00000010
00000000
01000000
,
00100000
01000000
00000000
00000010
,
00000000
00000010
00000000
01000000
,
00000000
01000000
00000000
00000010
,
00000100
00000010
00000000
01000000
,
00100000
01000000
00000000
00000010
,
00000000
01000000
00000000
00000010
,
00000000
00100000
00000100
01000000
,
00000010
11000000
00000000
01000000
,
00000000
00000011
00000000
00000010
,
00000000
00110000
00000000
00100000
,
00000000
00010100
00000000
00000100
,
00000000
01000000
00000010
00100000
,
00000100
00110000
00000000
00000010
,
00000000
00100000
00000100
00100000
,
00000100
00000000
00100000
00000000
00000100
00000100
00000100
00000000
;
#NOTEDATA:;
#STEPSTYPE:ds3ddx-double;
#DESCRIPTION:Dual;
#DIFFICULTY:Medium;
#METER:2;
#RADARVALUES:;
#BPMS:0.000=130.000;
#STOPS:0.000=0.000;
#DELAYS:;
#NOTES:
0000000000000000
0000000000000000
0000000000000000
0000000000000000
,
0000000000000000
0000000000000000
0000000000000000
0000000000000000
,
0000000000000000
0000000000000000
0000000000000000
0000000000000000
,
0000000000000000
0000000000000000
0000000000000000
0000000000000000
,
0000000000000000
0011000000000000
0000000000000000
0010000000000000
,
0000000000000000
0001010000000000
0000000000000000
0000010000000000
,
0000000000000000
0100000000000000
0000000000000000
0000001000000000
,
0000000000000000
0000000001000000
0000000000000000
0000000000000010
,
0000000000000000
0000000011000000
0000000000000000
0000000001000000
,
0000000000000000
0000000000000011
0000000000000000
0000000000000010
,
0000000000000000
0000000000100000
0000000000000100
0000000001000000
,
0000000000000010
0000000011000000
0000000000000000
0000000000000000
,
0000000000000000
0000001000000000
0000000001000000
0000001000000000
,
0000000000000000
0000000001000000
0000001000000000
0000000001000000
,
0000000000000000
0000010000000000
0000000000100000
0000010000000000
,
0000000000000000
0000000000100000
0000010000000000
0000000000100000
,
0000000000000000
0000000001000000
0000000000000000
0000000000000010
,
0000000000000000
0000000001000000
0000000000000000
0000000001000000
,
0000000000000000
0000000000000100
0000000000100000
0000000001000000
,
0000001000000000
0000000001000000
0000000000000000
0000000000000000
,
0000000000000000
0000000000000010
0000000001000000
0000000000100000
,
0000010000000000
0000001000000000
0000000000000000
0010000000000000
,
0000000000000000
0000010000000000
0010000000000000
0000010000000000
,
0000001000000000
0000000001000000
0000000000000000
0000000000100000
,
0000000000000000
0000000000000100
0000000000000000
0000000000000010
,
0000000000000000
0000000000100000
0000000000000000
0000000001000000
,
0000000000000000
0000000000000100
0000000000100000
0000000000000010
,
0000000000000010
0000000011000000
0000000000000000
0000000000000010
,
0000000000000100
0000000000000010
0000000000000000
0000000001000000
,
0000000000100000
0000000001000000
0000000000000000
0000000000100000
,
0000000000000000
0000010000000000
0000000000000000
0000001000000000
,
0000000000000000
0000001000000000
0000000000000000
0100000000000000
,
0010000000000000
0100000000000000
0000000000000000
0000001000000000
,
0000010000000000
0000001000000000
0000000000000000
0000010000000000
,
0000000000000000
0000000000100000
0000000000000000
0000000001000000
,
0000000000000000
0000000000000100
0000000000100000
0000000000000010
,
0000000001000000
0000000000000011
0000000000000000
0000000001000000
,
0000000000000000
0000000000110000
0000000000000000
0000000000100000
,
0000000000000000
0001010000000000
0000000000000000
0000010000000000
,
0000000000000000
0000001000000000
0000000000000000
0100000000000000
,
0000000000000000
0000001000000000
0100000000000000
0000010000000000
,
0010000000000000
0001010000000000
0000000000000000
0000001000000000
,
0000000000000000
0000000001000000
0000001000000000
0000000000100000
,
0000010000000000
0000000000000000
0000000001000000
0000000000000000
0000001000000000
0000001000000000
0000001000000000
0000000000000000
;
